img image001 image001 image001 image001 image001 image001 image001 image001 image001 image001 image001 image001 image001 image001 image001

Planets Sun Sun Sun
Статистика раздачи
Автор: Nickolas3434 | Размер: 699.48 МБ | Добавлен: 18 фев 2014
Раздают: 23    Качают: 10
Скачать торрент
Скачать торрент
Описание торрента

СообщениеДобавлено: 18 фев 2014 

Человек против гепарда
Man v. Cheetah
Man vs. Cheetah




Год выпуска: 2013
Страна: США
Жанр: Документальный
Продолжительность: 00:43:59
Перевод: Профессиональный (дублированный) | Денис Некрасов / АРК·ТВ
Интервью и комментарии - Профессиональный (одноголосый закадровый)
Русские субтитры: нет


Режиссер: Роберт Каррен / Robert Curran

Описание: Возьмите самое быстрое млекопитающее на планете и сравните его с двумя наиболее быстрыми профессиональными атлетами: кто победит ... и какие шокирующие тайны откроются? Сидя в первом ряду, мы наблюдаем за игроком в американский футбол Крисом Джонсоном - самым быстрым раннин бэком лиги НФЛ - и Дэвином Хестером. Они участвуют в необычайном противостоянии, единственном в своем роде - соревновании один – на – один с гепардом.
Гепарды будут состязаться с лучшими игроками НФЛ (национальной футбольной лиги). Кто победит? Сможет ли человек обогнать самого быстрого представителя царства животных из семейства кошачьих? Возможно всё.


Автор рипа: Leo.pard
Исходник: HDTV 1080i Спасибо LeXa 84!


Kачество: HDTVRip-AVC
Формат: MKV
Видео: x264, 880x496 (16:9), 2029 Kbps, 25 fps
Аудио: MP2, 192 Kbps, 48 KHz, 2 channels

Сэмпл: http://multi-up.com/951355

General
Unique ID : 197387612170647859214724905623766898405 (0x947F78A6A95FF4F2BCC61365DFC716E5)
Complete name : D:Chelovek.protiv.geparda.2013.HDTVRip-AVC.mkv
Format : Matroska
Format version : Version 2
File size : 699 MiB
Duration : 43mn 59s
Overall bit rate : 2 223 Kbps
Encoded date : UTC 2014-02-12 00:38:10
Writing application : mkvmerge v6.1.0 ('Old Devil') built on Mar 4 2013 09:10:42
Writing library : libebml v1.3.0 + libmatroska v1.4.0

Video
ID : 1
Format : AVC
Format/Info : Advanced Video Codec
Format profile : High@L4.1
Format settings, CABAC : Yes
Format settings, ReFrames : 8 frames
Codec ID : V_MPEG4/ISO/AVC
Duration : 43mn 59s
Bit rate : 2 029 Kbps
Width : 880 pixels
Height : 496 pixels
Display aspect ratio : 16:9
Frame rate : 25.000 fps
Color space : YUV
Chroma subsampling : 4:2:0
Bit depth : 8 bits
Scan type : Progressive
Bits/(Pixel*Frame) : 0.186
Stream size : 625 MiB (89%)
Writing library : x264 core 138 r2358 9e941d1
Encoding settings : cabac=1 / ref=8 / deblock=1:-2:-1 / analyse=0x3:0x113 / me=umh / subme=10 / psy=1 / psy_rd=1.00:0.05 / mixed_ref=1 / me_range=32 / chroma_me=1 / trellis=2 / 8x8dct=1 / cqm=0 / deadzone=21,11 / fast_pskip=0 / chroma_qp_offset=-3 / threads=3 / lookahead_threads=1 / sliced_threads=0 / nr=0 / decimate=0 / interlaced=0 / bluray_compat=0 / constrained_intra=0 / bframes=8 / b_pyramid=2 / b_adapt=2 / b_bias=0 / direct=3 / weightb=1 / open_gop=0 / weightp=2 / keyint=250 / keyint_min=25 / scenecut=40 / intra_refresh=0 / rc_lookahead=40 / rc=2pass / mbtree=1 / bitrate=2029 / ratetol=1.0 / qcomp=0.60 / qpmin=0 / qpmax=69 / qpstep=4 / cplxblur=20.0 / qblur=0.5 / ip_ratio=1.40 / aq=1:1.00

Audio
ID : 2
Format : MPEG Audio
Format version : Version 1
Format profile : Layer 2
Codec ID : A_MPEG/L2
Codec ID/Hint : MP2
Duration : 43mn 59s
Bit rate mode : Constant
Bit rate : 192 Kbps
Channel(s) : 2 channels
Sampling rate : 48.0 KHz
Compression mode : Lossy
Stream size : 60.4 MiB (9%)
Language : English







   Похожие торренты   Торрент   Размер 
В этой теме нет новых непрочитанных сообщений. Nat Geo Wild: Человек против гепарда / Man v. Cheetah / Man vs. Cheetah (2013) HDTVRip от Leo.pard | D

55 | 7

700.25 МБ

В этой теме нет новых непрочитанных сообщений. National Geographic. Кошачьи войны: Лев против Гепарда / Cat Wars: Lion vs. Cheetah (2011) HDTVRip-AVC от SilverCinema

33 | 2

668.41 МБ

В этой теме нет новых непрочитанных сообщений. Гепард - борьба за признание / Cheetah - Race to Rule (2013) HDTVRip-AVC от Leo.pard | D

30 | 5

699.9 МБ

В этой теме нет новых непрочитанных сообщений. Гепард - борьба за признание / Cheetah - Race to Rule (2013) HDTVRip от Leo.pard | D

8 | 2

699.48 МБ

В этой теме нет новых непрочитанных сообщений. Гепард: Фатальный инстинкт / Cheetah: Fatal Instinct (2012) HDTVRip-AVC от Leo.pard | D

16 | 4

699.52 МБ

В этой теме нет новых непрочитанных сообщений. Царство гепардов / Cheetah Kingdom [01-12 из 12] (2010) HDTVRip от Fenix

2 | 2

4.65 ГБ

В этой теме нет новых непрочитанных сообщений. Nat Geo Wild: Пума против волка / Cougar vs Wolf (2013) HDTVRip-AVC от Leo.pard | P1

77 | 12

700.33 МБ




Вы не можете начинать темы
Вы не можете отвечать на сообщения
Вы не можете редактировать свои сообщения
Вы не можете удалять свои сообщения
Вы не можете добавлять вложения

Перейти:  
Для Мосгорсуда, Роскомнадзора и рекламодателей: mosgorsud-torrent[собачка]yandex.ru
 Вход
ppkBB3cker v.2 © 2008-2014 @ PPK
[ Time : 0.041s | 16 Queries | GZIP : Off ]

cron