img image001 image001 image001 image001 image001 image001 image001 image001 image001 image001 image001 image001 image001 image001 image001

Planets Sun Sun Sun
Статистика раздачи
Автор: Nickolas3434 | Размер: 6.42 ГБ | Добавлен: 20 фев 2014
Раздают: 59    Качают: 62
Скачать торрент
Скачать торрент
Описание торрента

СообщениеДобавлено: 20 фев 2014 

Пир драконов
Dragons Feast



Год выпуска: 2012
Страна: США (NHU Africa, Foster Brothers Film Productions)
Жанр: Документальный
Продолжительность: 00:54:15

Перевод: Профессиональный одноголосый закадровый (Антон Савенков / АРК·ТВ)

Режиссеры: Craig Foster, Damon Foster

В ролях: Roger Horrocks

Описание: Изучение Роджером Хорроксом жизни и повадок крокодилов в Африке и Коста-Рике (Центральная Америка). Пожалуй никто никогда так близко и так опасно не снимал крокодилов, тем более во время поедания ими добычи...

Доп. инфо: Поскольку исходник русской дороги (HDTV-релиз) был короче исходника видео (Blu-Ray 3D), в нескольких эпизодах отсутствует перевод. Плюс, монтаж музыки в HDTV-релизе был не как на БД, потому некоторые концовки фраз русской озвучки довольно "шероховаты".






Качество: BDRip (by Ash61)
Контейнер: MKV
Формат 3D: Half OverUnder / Вертикальная анаморфная стереопара
Порядок ракурсов: левый ракурс первый
Видео кодек: x264
Аудио кодек: AC3



Видео: AVC / 23,976 fps / 1920х1080p / 15.3 Mbps

Аудио:
#1 - Русский / AC3 / 48 KHz / 5.1 ch / 640 Kbps (VO - Антон Савенков / АРК·ТВ) (монтаж с HDTV)
#2 - Английский / AC3 / 48 KHz / 5.1 ch / 640 Kbps (Original - BD 3D)

Субтитры: Отсутствуют

За исходник озвучки спасибо LeXa 84!

General
Unique ID : 220258151007500763548567149049401551351 (0xA5B42D462D65C055926D79279D37A9F7)
Complete name : E:DragonsFeast(2012)3D-halfOU(Ash61)VO.mkv
Format : Matroska
Format version : Version 2
File size : 6.42 GiB
Duration : 54mn 15s
Overall bit rate : 16.9 Mbps
Movie name : Пир драконов / Dragons Feast (2012) 3D
Encoded date : UTC 2014-02-14 17:28:44
Writing application : mkvmerge v5.8.0 ('No Sleep / Pillow') built on Sep 2 2012 15:37:04
Writing library : libebml v1.2.3 + libmatroska v1.3.0

Video
ID : 1
Format : AVC
Format/Info : Advanced Video Codec
Format profile : High@L4.1
Format settings, CABAC : Yes
Format settings, ReFrames : 4 frames
Codec ID : V_MPEG4/ISO/AVC
Duration : 54mn 15s
Bit rate : 15.3 Mbps
Width : 1 920 pixels
Height : 1 080 pixels
Display aspect ratio : 16:9
Frame rate mode : Constant
Frame rate : 23.976 fps
Color space : YUV
Chroma subsampling : 4:2:0
Bit depth : 8 bits
Scan type : Progressive
Bits/(Pixel*Frame) : 0.308
Stream size : 5.81 GiB (90%)
Title : BDRip by Ash61
Writing library : x264 core 129 r2245 bc13772
Encoding settings : cabac=1 / ref=4 / deblock=1:-1:-1 / analyse=0x3:0x113 / me=umh / subme=9 / psy=1 / psy_rd=1.00:0.15 / mixed_ref=1 / me_range=32 / chroma_me=1 / trellis=2 / 8x8dct=1 / cqm=0 / deadzone=21,11 / fast_pskip=1 / chroma_qp_offset=-3 / threads=12 / lookahead_threads=2 / sliced_threads=0 / nr=0 / decimate=1 / interlaced=0 / bluray_compat=0 / constrained_intra=0 / bframes=8 / b_pyramid=2 / b_adapt=2 / b_bias=0 / direct=3 / weightb=1 / open_gop=0 / weightp=2 / keyint=250 / keyint_min=23 / scenecut=40 / intra_refresh=0 / rc_lookahead=60 / rc=crf / mbtree=1 / crf=18.0 / qcomp=0.70 / qpmin=10 / qpmax=51 / qpstep=4 / vbv_maxrate=40000 / vbv_bufsize=30000 / crf_max=0.0 / nal_hrd=none / frame-packing=4 / ip_ratio=1.40 / aq=1:0.70
Language : English
Default : Yes
Forced : No

Audio #1
ID : 2
Format : AC-3
Format/Info : Audio Coding 3
Mode extension : CM (complete main)
Format settings, Endianness : Big
Codec ID : A_AC3
Duration : 54mn 15s
Bit rate mode : Constant
Bit rate : 640 Kbps
Channel(s) : 6 channels
Channel positions : Front: L C R, Side: L R, LFE
Sampling rate : 48.0 KHz
Bit depth : 16 bits
Compression mode : Lossy
Stream size : 248 MiB (4%)
Title : Одноголосый закадровый - Антон Савенков / АРК-ТВ (mix 5.1 by Ash61)
Language : Russian
Default : Yes
Forced : No

Audio #2
ID : 3
Format : AC-3
Format/Info : Audio Coding 3
Mode extension : CM (complete main)
Format settings, Endianness : Big
Codec ID : A_AC3
Duration : 54mn 15s
Bit rate mode : Constant
Bit rate : 640 Kbps
Channel(s) : 6 channels
Channel positions : Front: L C R, Side: L R, LFE
Sampling rate : 48.0 KHz
Bit depth : 16 bits
Compression mode : Lossy
Stream size : 248 MiB (4%)
Title : Original - BD 3D
Language : English
Default : No
Forced : No

Menu
00:00:00.000 : :1
00:10:23.998 : :2
00:21:23.991 : :3
00:31:31.014 : :4
00:42:48.983 : :5















   Похожие торренты   Торрент   Размер 
В этой теме нет новых непрочитанных сообщений. Меню / Feast (2014) BDRip 1080p от Ash61 | 3D-Video | halfOU | Лицензия

101 | 10

548.14 МБ

В этой теме нет новых непрочитанных сообщений. Nat Geo Wild: Пир драконов / Dragons Feast (2012) HDTVRip-AVC от Leo.pard | D

0 | 1

700.51 МБ

В этой теме нет новых непрочитанных сообщений. Nat Geo Wild: Пир драконов / Dragons Feast (2012) HDTVRip от Leo.pard | D

0 | 1

700.45 МБ

В этой теме нет новых непрочитанных сообщений. Камасутра 3D / Kamasutra 3D (2012) BDRip 1080p от Ash61 | 3D-Video | halfOU

600 | 49

3.58 ГБ

В этой теме нет новых непрочитанных сообщений. Гильотина / Гильотины / Xue di zi / The Guillotines (2012) BDRip 1080p от Ash61 | 3D-Video | halfOU | L2

32 | 73

15.5 ГБ

В этой теме нет новых непрочитанных сообщений. Охотники на демонов / Hellbenders (2012) BDRip 1080p от Ash61 | 3D-Video | halfOU

349 | 70

5.24 ГБ

В этой теме нет новых непрочитанных сообщений. 009 король: Киборг / 009 Re: Cyborg (2012) BDRip 1080p от Ash61 | 3D-Video | halfOU | L

66 | 25

4.15 ГБ




Вы не можете начинать темы
Вы не можете отвечать на сообщения
Вы не можете редактировать свои сообщения
Вы не можете удалять свои сообщения
Вы не можете добавлять вложения

Перейти:  
Для Мосгорсуда, Роскомнадзора и рекламодателей: mosgorsud-torrent[собачка]yandex.ru
 Вход
ppkBB3cker v.2 © 2008-2014 @ PPK
[ Time : 2.219s | 17 Queries | GZIP : Off ]

cron