img image001 image001 image001 image001 image001 image001 image001 image001 image001 image001 image001 image001 image001 image001 image001

Planets Sun Sun Sun
Статистика раздачи
Автор: Nickolas3434 | Размер: 1.77 ГБ | Добавлен: 23 фев 2014
Раздают: 30    Качают: 12
Скачать торрент
Скачать торрент
Описание торрента

СообщениеДобавлено: 23 фев 2014 

Информация о фильме
Название: Секреты Большого Барьерного рифа
Оригинальное название: Secrets of the Great Barrier Reef
Год выхода: 2007
Жанр: Документальный, фауна, видовой, природа
Режиссер: Росс Айзекс

О фильме:
Большой Барьерный риф — гряда коралловых рифов и островов в Коралловом море, протянувшаяся вдоль северо-восточного побережья Австралии на 2500 км. Здесь обитает более 400 видов кораллов. На Большом барьерном рифе обитает около 1500 видов морских рыб. Число же только массово встречающихся видов истинно рифовых рыб, максимально приспособленных к жизни именно в этой экосистеме — около 500. Здесь обитает крупнейшая рыба на земле — китовая акула, множество видов рыб-попугаев, кузовков, рыб-бабочек, мурен и многих других. Фильм приоткрывает некоторые тайны обитателей Большого Барьерного рифа.
Страна: Испания
Продолжительность: 00:51:17
Перевод: Дублированный (Первый ТВЧ)

Файл
Кодек: MPEG-4 AVC
Качество: HDTVRip 720р
Видео: 4402 Кбит/с, 1280х720, 25 кадр/с
Звук: AC3, 2 ch, 448 Кбит/с

General
Unique ID : 196561733290712702246726821113676890715 (0x93E069ADB03895D5A2D6FFF8E4CF025B)
Complete name : I:РЕЛИЗЫSecrets.of.the.Great.Barrier.Reef.(2009).HDTVRip.720p.mkv
Format : Matroska
Format version : Version 2
File size : 1.77 GiB
Duration : 51mn 18s
Overall bit rate : 4 949 Kbps
Movie name : Created by DeathN2 for Kinozal.TV-HD
Encoded date : UTC 2010-12-25 09:04:48
Writing application : mkvmerge v4.0.0 ('The Stars were mine') сборка от Jun 6 2010 16:18:42
Writing library : libebml v1.0.0 + libmatroska v1.0.0

Video
ID : 1
Format : AVC
Format/Info : Advanced Video Codec
Format profile : Main@L3.1
Format settings, CABAC : Yes
Format settings, ReFrames : 2 frames
Codec ID : V_MPEG4/ISO/AVC
Duration : 51mn 18s
Bit rate : 4 500 Kbps
Width : 1 280 pixels
Height : 720 pixels
Display aspect ratio : 16:9
Frame rate mode : Constant
Frame rate : 25.063 fps
Original frame rate : 25.000 fps
Color space : YUV
Chroma subsampling : 4:2:0
Bit depth : 8 bits
Scan type : Progressive
Bits/(Pixel*Frame) : 0.195
Stream size : 1.58 GiB (89%)
Title : Секреты Большого Барьерного рифа / Secrets of the Great Barrier Reef / 2009 / ДБ / HDTVRip (720р) – Кинозал.ТВ-HD
Writing library : x264 core 65
Encoding settings : cabac=1 / ref=2 / deblock=1:0:0 / analyse=0x1:0x111 / me=umh / subme=6 / psy_rd=1.0:0.0 / mixed_ref=0 / me_range=16 / chroma_me=1 / trellis=0 / 8x8dct=0 / cqm=0 / deadzone=21,11 / chroma_qp_offset=-2 / threads=12 / nr=0 / decimate=1 / mbaff=0 / bframes=2 / b_pyramid=0 / b_adapt=1 / b_bias=0 / direct=1 / wpredb=0 / keyint=250 / keyint_min=25 / scenecut=40(pre) / rc=2pass / bitrate=4500 / ratetol=1.0 / qcomp=0.60 / qpmin=10 / qpmax=51 / qpstep=4 / cplxblur=20.0 / qblur=0.5 / ip_ratio=1.40 / pb_ratio=1.30 / aq=1:1.00
Language : Russian
Default : Yes
Forced : Yes
Color primaries : BT.709
Transfer characteristics : BT.709
Matrix coefficients : BT.709

Audio
ID : 2
Format : AC-3
Format/Info : Audio Coding 3
Mode extension : CM (complete main)
Format settings, Endianness : Big
Codec ID : A_AC3
Duration : 51mn 18s
Bit rate mode : Constant
Bit rate : 448 Kbps
Channel(s) : 2 channels
Channel positions : Front: L R
Sampling rate : 48.0 KHz
Bit depth : 16 bits
Compression mode : Lossy
Stream size : 164 MiB (9%)
Language : Russian
Default : Yes
Forced : Yes




   Похожие торренты   Торрент   Размер 
В этой теме нет новых непрочитанных сообщений. Большой Барьерный риф / Great Barrier Reef [01-03 из 03] (2011) HDRip

13 | 4

2.96 ГБ

В этой теме нет новых непрочитанных сообщений. Большой Барьерный риф / Great Barrier Reef [01-03 из 03] (2011) BDRip 720p

0 | 2

9.35 ГБ

В этой теме нет новых непрочитанных сообщений. Большой Барьерный риф / Great Barrier Reef [01-03 из 03] (2011) BDRip 1080p

1 | 18

17.59 ГБ

В этой теме нет новых непрочитанных сообщений. BBC. Большой Барьерный риф с Дэвидом Аттенборо / Great Barrier Reef with David Attenborough [01-03 из 03] (2016) BDRip 1080p | P

32 | 8

27.26 ГБ

В этой теме нет новых непрочитанных сообщений. BBC. Большой Барьерный риф с Дэвидом Аттенборо / Great Barrier Reef with David Attenborough [01 из 03] (2016) BDRip 720p | P

164 | 40

4.38 ГБ

В этой теме нет новых непрочитанных сообщений. BBC. Большой Барьерный риф с Дэвидом Аттенборо / Great Barrier Reef with David Attenborough [01 из 03] (2016) BDRip 720p | P

13 | 3

12.64 ГБ

В этой теме нет новых непрочитанных сообщений. Жизнь на Большом Барьерном рифе / Life on the Barrier Reef [01-03 из 03] (2014) HDTVRip от torrentfilm

203 | 42

1.46 ГБ




Вы не можете начинать темы
Вы не можете отвечать на сообщения
Вы не можете редактировать свои сообщения
Вы не можете удалять свои сообщения
Вы не можете добавлять вложения

Перейти:  
Для Мосгорсуда, Роскомнадзора и рекламодателей: mosgorsud-torrent[собачка]yandex.ru
 Вход
ppkBB3cker v.2 © 2008-2014 @ PPK
[ Time : 0.068s | 17 Queries | GZIP : Off ]

Торрент трекер RUTOR.IN, Не можете зайти на rutor.org? Какой новый адрес рутор? Какое зеркало рутор? Не работает rutor.org и зеркала? Тогда наш торрент специально для вас. Rutor.in неофициальное зеркало rutor. В случае если у Вас заблокирован rutor или вдруг Вы не можете на него зайти, то Вы без труда сможете скачать бесплатно и без рекламы последние новинки кино, игр, сериалов и прочего у нас, на Rutor.in. Не нужно использовать прокси, чтобы зайти на рутор, достаточно воспользоваться нашим ресурсом. Все новые фильмы, игры, сериалы, книги и музыка за 2013 и 2014 годы через торрент бесплатно. Скачивайте фильмы в хорошем качестве, игры для пк, xbox, playstation без регистрации. У нас вы найдете новые Зарубежные сериалы и Русские сериалы 2013, 2014, 2015 годов. Оставайтесь с нами, качайте любимые фильмы, игры, сериалы, книги и музыку.