img image001 image001 image001 image001 image001 image001 image001 image001 image001 image001 image001 image001 image001 image001 image001

Planets Sun Sun Sun
Статистика раздачи
Автор: Nickolas3434 | Размер: 80.05 ГБ | Добавлен: 28 фев 2014
Раздают: 27    Качают: 190
Скачать торрент
Скачать торрент
Описание торрента

СообщениеДобавлено: 28 фев 2014 

Air Crash Investigation / Mayday / Расследования авиакатастроф / сезоны 02, 03, 04, 05, 06, 07, 08, 09, 10, 11, 12, 13

Год выпуска: 2004
Страна: Канада
Жанр: документальный
Продолжительность: ~ 00:47:00
Перевод: Профессиональный (двухголосый закадровый)
Русские субтитры: нет
Субтитры: английские

Описание: Сериал о наиболее громких и загадочных катастрофах в истории гражданской авиации.
Наиболее полную информацию о сериале можно получить здесь List of Mayday episodes, для фанатов рекомендую именно этот сайт.
Есть русская, более лаконичная версия Список эпизодов телесериала «Расследования авиакатастроф»

Доп. информация: Рипы взяты с иностранных ресурсов. Русские дорожки синхронизировал sokolmy2

Сэмпл: http://multi-up.com/924015

Качество: HDTVRip 720p
формат: MKV
Видео: 1280х720 (1,78:1), 25 fps, AVC (H.264) ~3033 kbps avg, 0.132 bit/pixel
Аудио 1: Russian (48 KHz, AAC-LC, 2 ch, ~128 Kbps) (двухголосый)
Аудио 2: English (48 KHz, AC3, 6 ch, ~384 Kbps) (оригинал, в части серий на оригинальную дорожку наложен немецкий, испанский или итальянский перевод)
Формат субтитров: softsub (SRT)

"Список выпусков/серий"
2-02 Раненая птица (A Wounded Bird)
2-03 Захват самолета (The Killing Machine)
2-04 Столкновение в небе (Mid-Air Collision)
2-05 Столкновение с горой (Crash on the Mountain)
2-06 Роковая задержка (Deadly Delay)
3-01 Ошибка в идентификации (Mistaken Identity)
4-01 Чудесное спасение (Desperate Escape)
5-01 За закрытыми дверями (Behind Closed Doors)
5-02 Роковое приземление (Gimli Glider)
5-03 Почему самолет рухнул на землю (Invisible Killer)
5-06 Южная буря (Southern Storm)
5-07 Взрывоопасная улика (Explosive Evidence)
5-08 Самолет, который молчал (Mixed Signals)
5-09 Без управления (Fatal Distraction)
5-10 Радиомолчание (Phantom Strike)
6-01 Разорванный небом (Ripped Apart)
6-02 Роковой дефект (Fatal Flaw)
6-03 Кто управляет самолетом (Who's Flying the Plane)
07-01 Распавшийся за секунды (Scratching the Surface)
07-02 Локерби (Lockerbie Disaster)
07-03 Смертельный приз (Blown Apart)
07-05 Лобовое столкновение (Sight Unseen)
07-06 Исчезнувший самолет (Flight 574. Lost)
07-07 Обледенение в воздухе (Frozen in Flight)
07-08 Аварийное приводнение (Falling Fast)
8-01 Обрыв связи (System Breakdown)
8-02 Смертельный ураган (Cruel Skies)
9-01 Паника на взлетной полосе (Panic on the Runway)
9-02 Хаос в кабине (Alarming Silence)
9-03 Пилот или самолет (Pilot vs. Plane)
9-04 Ошибка диспетчера (Cleared for Disaster)
9-05 Цель уничтожена (Target is Destroyed)
9-06 В снежном плену (Cold Case)
9-07 Спрограммированное падение (The Final Blow)
9-08 Майамская загадка (Miami Mistery)
10-01 Последняя ошибка пилота (Cockpit Failure)
10-02 Загадка Хитроу (The Heathrow Enigma)
10-03 Коварный лед (Pilot Betrayed)
10-04 Смертельно уставшие (Dead Tired)
10-05 Посадка на Гудзон (Hudson River Runway)
10-06 Кто управлял самолетом (Who's In Control)
11-01 Катастрофа при посадке (Deadly Reputation)
11-02 Роковая ошибка (The Plane That Flew Too High)
11-03 Двойственное решение комиссии (Split Decision)
11-04 Распавшийся в небе (Breakup Over Texas)
11-05 Мюнхенская трагедия (Munich Air Disaster)
11-06 Полет на грани падения (Turning Point)
11-07 Смертельный пилотаж (Bad Attitude)
11-08 Мертвая зона (Blind Spot)
11-09 Ад в пустыне (Under Pressure)
11-10 В поисках виновных (I'm The Problem)
11-11 Посадка невозможна (Nowhere to Land)
11-12 Невидимый самолет (The Invisible Plane)
11-13 Взрыв над Сиу-Сити (Impossible Landing)
12-01 Борьба за управление (Fight for Control)
12-02 Пожар в грузовом отсеке (Fire in the Hold)
12-03 Ураганный взлет (Caution to the Wind)
12-04 Доведенный до предела (Pushed to the Limit)
12-05 Посадка вслепую (Blind Landing)
12-06 Катастрофа в Большом Каньоне (Grand Canyon Disaster)
12-07 Самая страшная авиакатастрофа в США (Catastrophe at O'Hare)
12-08 Фатальная фиксация (Focused on Failure)
12-09 Трагедия Локомотива (Lokomotiv Hockey Team Disaster)
12-10 Гибель президента (Death of the President)
12-11 Курс на смерть (Heading to Disaster)
12-12 28 секунд на выживание (28 Seconds to Survive)
12-13 Air France 447. Пропавший рейс (Air France 447. Vanished)
13-01 Борьба за жизнь (Britain's Worst Air Crash)
13-02 Молчание Фантома (Speed Trap)
13-03 Трудности перевода (Lost in Translation)
13-04 Трагедия на Потомаке (Disaster on the Potomac)
13-05 Катастрофа в Квинсе (Queens Catastrophe)
13-06 В эпицентре бури (Into the Eye of the Storm)
13-09 Бойня над Средиземным морем (Massacre Over The Mediterranean)


Общее
Полное имя : D:КИНОAir Crash Investigation_HDAir Crash Investigation_HD.torrent
Размер файла : 14,0 Кбайт

Общее
Уникальный идентификатор : 211312682095873288025043327532500556635 (0x9EF9579AECDFAB99A78491B1B5749B5B)
Полное имя : D:КИНОAir Crash Investigation_HDseason 022-02 Раненая птица (A Wounded Bird).mkv
Формат : Matroska
Версия формата : Version 4 / Version 2
Размер файла : 1,11 Гбайт
Продолжительность : 47 м.
Общий поток : 3385 Кбит/сек
Дата кодирования : UTC 2013-11-19 16:30:10
Программа кодирования : mkvmerge v6.5.0 ('Isn't she lovely') built on Oct 20 2013 12:50:05
Библиотека кодирования : libebml v1.3.0 + libmatroska v1.4.1

Видео
Идентификатор : 1
Формат : AVC
Формат/Информация : Advanced Video Codec
Профиль формата : High@L3.1
Параметр CABAC формата : Да
Параметр ReFrames формата : 4 кадра
Идентификатор кодека : V_MPEG4/ISO/AVC
Продолжительность : 47 м.
Номинальный битрейт : 3031 Кбит/сек
Ширина : 1280 пикселей
Высота : 720 пикселей
Соотношение сторон : 16:9
Режим частоты кадров : Постоянный
Частота кадров : 25,000 кадров/сек
Цветовое пространство : YUV
Субдискретизация насыщенности : 4:2:0
Битовая глубина : 8 бит
Тип развёртки : Прогрессивная
Бит/(Пиксели*Кадры) : 0.132
Библиотека кодирования : x264 core 125 r2208 d9d2288
Настройки программы : cabac=1 / ref=3 / deblock=1:0:0 / analyse=0x3:0x111 / me=hex / subme=7 / psy=1 / psy_rd=1.00:0.00 / mixed_ref=1 / me_range=16 / chroma_me=1 / trellis=1 / 8x8dct=1 / cqm=0 / deadzone=21,11 / fast_pskip=1 / chroma_qp_offset=-2 / threads=3 / lookahead_threads=1 / sliced_threads=0 / nr=0 / decimate=1 / interlaced=0 / bluray_compat=0 / constrained_intra=0 / bframes=3 / b_pyramid=2 / b_adapt=1 / b_bias=0 / direct=1 / weightb=1 / open_gop=0 / weightp=2 / keyint=250 / keyint_min=25 / scenecut=40 / intra_refresh=0 / rc_lookahead=40 / rc=2pass / mbtree=1 / bitrate=3031 / ratetol=1.0 / qcomp=0.60 / qpmin=0 / qpmax=69 / qpstep=4 / cplxblur=20.0 / qblur=0.5 / ip_ratio=1.40 / aq=1:1.00
Язык : English
Default : Да
Forced : Нет

Аудио #1
Идентификатор : 2
Формат : AAC
Формат/Информация : Advanced Audio Codec
Профиль формата : LC
Идентификатор кодека : A_AAC
Продолжительность : 47 м.
Каналы : 2 канала
Расположение каналов : Front: L R
Частота : 48,0 КГц
Метод сжатия : С потерями
Задержка видео : 9 мс.
Язык : Russian
Default : Нет
Forced : Нет

Аудио #2
Идентификатор : 3
Формат : AC-3
Формат/Информация : Audio Coding 3
Расширение режима : CM (complete main)
Параметр Endianness формата : Big
Идентификатор кодека : A_AC3
Продолжительность : 47 м.
Вид битрейта : Постоянный
Битрейт : 224 Кбит/сек
Каналы : 2 канала
Расположение каналов : Front: L R
Частота : 48,0 КГц
Битовая глубина : 16 бит
Метод сжатия : С потерями
Размер потока : 75,3 Мбайт (7%)
Язык : English
Default : Нет
Forced : Нет

Текст
Идентификатор : 4
Формат : UTF-8
Идентификатор кодека : S_TEXT/UTF8
Идентификатор кодека/Информация : UTF-8 Plain Text
Язык : English
Default : Нет
Forced : Нет

Меню
00:00:00.054 : en:00:00:00.054

Общее
Уникальный идентификатор : 226576218081900859439105325341841827052 (0xAA74FE07F657235A98EC78A71DB024EC)
Полное имя : D:КИНОAir Crash Investigation_HDseason 022-04 Столкновение в небе (Mid-Air Collision).mkv
Формат : Matroska
Версия формата : Version 4 / Version 2
Размер файла : 1,10 Гбайт
Продолжительность : 46 м.
Общий поток : 3353 Кбит/сек
Дата кодирования : UTC 2013-11-16 19:28:16
Программа кодирования : mkvmerge v6.5.0 ('Isn't she lovely') built on Oct 20 2013 12:50:05
Библиотека кодирования : libebml v1.3.0 + libmatroska v1.4.1

Видео
Идентификатор : 1
Формат : AVC
Формат/Информация : Advanced Video Codec
Профиль формата : High@L3.1
Параметр CABAC формата : Да
Параметр ReFrames формата : 4 кадра
Идентификатор кодека : V_MPEG4/ISO/AVC
Продолжительность : 46 м.
Номинальный битрейт : 3033 Кбит/сек
Ширина : 1280 пикселей
Высота : 720 пикселей
Соотношение сторон : 16:9
Режим частоты кадров : Постоянный
Частота кадров : 25,000 кадров/сек
Цветовое пространство : YUV
Субдискретизация насыщенности : 4:2:0
Битовая глубина : 8 бит
Тип развёртки : Прогрессивная
Бит/(Пиксели*Кадры) : 0.132
Библиотека кодирования : x264 core 125 r2208 d9d2288
Настройки программы : cabac=1 / ref=3 / deblock=1:0:0 / analyse=0x3:0x111 / me=hex / subme=7 / psy=1 / psy_rd=1.00:0.00 / mixed_ref=1 / me_range=16 / chroma_me=1 / trellis=1 / 8x8dct=1 / cqm=0 / deadzone=21,11 / fast_pskip=1 / chroma_qp_offset=-2 / threads=3 / lookahead_threads=1 / sliced_threads=0 / nr=0 / decimate=1 / interlaced=0 / bluray_compat=0 / constrained_intra=0 / bframes=3 / b_pyramid=2 / b_adapt=1 / b_bias=0 / direct=1 / weightb=1 / open_gop=0 / weightp=2 / keyint=250 / keyint_min=25 / scenecut=40 / intra_refresh=0 / rc_lookahead=40 / rc=2pass / mbtree=1 / bitrate=3033 / ratetol=1.0 / qcomp=0.60 / qpmin=0 / qpmax=69 / qpstep=4 / cplxblur=20.0 / qblur=0.5 / ip_ratio=1.40 / aq=1:1.00
Default : Да
Forced : Нет

Аудио #1
Идентификатор : 2
Формат : AAC
Формат/Информация : Advanced Audio Codec
Профиль формата : LC
Идентификатор кодека : A_AAC
Продолжительность : 46 м.
Каналы : 2 канала
Расположение каналов : Front: L R
Частота : 48,0 КГц
Метод сжатия : С потерями
Задержка видео : 9 мс.
Язык : Russian
Default : Нет
Forced : Нет

Аудио #2
Идентификатор : 3
Формат : AAC
Формат/Информация : Advanced Audio Codec
Профиль формата : LC
Идентификатор кодека : A_AAC
Продолжительность : 46 м.
Каналы : 2 канала
Расположение каналов : Front: L R
Частота : 48,0 КГц
Метод сжатия : С потерями
Язык : English
Default : Нет
Forced : Нет

Текст
Идентификатор : 4
Формат : UTF-8
Идентификатор кодека : S_TEXT/UTF8
Идентификатор кодека/Информация : UTF-8 Plain Text
Язык : English
Default : Нет
Forced : Нет

Меню
00:00:00.054 : en:00:00:00.054

Общее
Уникальный идентификатор : 182060035308631071875509155755811774893 (0x88F77CC421534C0399B6E621F0ADA1AD)
Полное имя : D:КИНОAir Crash Investigation_HDseason 022-05 Столкновение с горой (Crash on the Mountain).mkv
Формат : Matroska
Версия формата : Version 4 / Version 2
Размер файла : 1,10 Гбайт
Продолжительность : 46 м.
Общий поток : 3354 Кбит/сек
Дата кодирования : UTC 2013-11-20 19:03:53
Программа кодирования : mkvmerge v6.5.0 ('Isn't she lovely') built on Oct 20 2013 12:50:05
Библиотека кодирования : libebml v1.3.0 + libmatroska v1.4.1

Видео
Идентификатор : 1
Формат : AVC
Формат/Информация : Advanced Video Codec
Профиль формата : High@L3.1
Параметр CABAC формата : Да
Параметр ReFrames формата : 4 кадра
Идентификатор кодека : V_MPEG4/ISO/AVC
Продолжительность : 46 м.
Номинальный битрейт : 3034 Кбит/сек
Ширина : 1280 пикселей
Высота : 720 пикселей
Соотношение сторон : 16:9
Режим частоты кадров : Постоянный
Частота кадров : 25,000 кадров/сек
Цветовое пространство : YUV
Субдискретизация насыщенности : 4:2:0
Битовая глубина : 8 бит
Тип развёртки : Прогрессивная
Бит/(Пиксели*Кадры) : 0.132
Библиотека кодирования : x264 core 125 r2208 d9d2288
Настройки программы : cabac=1 / ref=3 / deblock=1:0:0 / analyse=0x3:0x111 / me=hex / subme=7 / psy=1 / psy_rd=1.00:0.00 / mixed_ref=1 / me_range=16 / chroma_me=1 / trellis=1 / 8x8dct=1 / cqm=0 / deadzone=21,11 / fast_pskip=1 / chroma_qp_offset=-2 / threads=3 / lookahead_threads=1 / sliced_threads=0 / nr=0 / decimate=1 / interlaced=0 / bluray_compat=0 / constrained_intra=0 / bframes=3 / b_pyramid=2 / b_adapt=1 / b_bias=0 / direct=1 / weightb=1 / open_gop=0 / weightp=2 / keyint=250 / keyint_min=25 / scenecut=40 / intra_refresh=0 / rc_lookahead=40 / rc=2pass / mbtree=1 / bitrate=3034 / ratetol=1.0 / qcomp=0.60 / qpmin=0 / qpmax=69 / qpstep=4 / cplxblur=20.0 / qblur=0.5 / ip_ratio=1.40 / aq=1:1.00
Default : Да
Forced : Нет

Аудио #1
Идентификатор : 2
Формат : AAC
Формат/Информация : Advanced Audio Codec
Профиль формата : LC
Идентификатор кодека : A_AAC
Продолжительность : 46 м.
Каналы : 2 канала
Расположение каналов : Front: L R
Частота : 48,0 КГц
Метод сжатия : С потерями
Задержка видео : 9 мс.
Язык : Russian
Default : Нет
Forced : Нет

Аудио #2
Идентификатор : 3
Формат : AAC
Формат/Информация : Advanced Audio Codec
Профиль формата : LC
Идентификатор кодека : A_AAC
Продолжительность : 46 м.
Каналы : 2 канала
Расположение каналов : Front: L R
Частота : 48,0 КГц
Метод сжатия : С потерями
Язык : English
Default : Нет
Forced : Нет

Текст
Идентификатор : 4
Формат : UTF-8
Идентификатор кодека : S_TEXT/UTF8
Идентификатор кодека/Информация : UTF-8 Plain Text
Язык : English
Default : Нет
Forced : Нет

Меню
00:00:00.054 : en:00:00:00.054

Общее
Уникальный идентификатор : 175020904536049636834587913157903541328 (0x83ABCCD2F56284BF9B1E51AEF1E66450)
Полное имя : D:КИНОAir Crash Investigation_HDseason 022-06 Роковая задержка (Deadly Delay).mkv
Формат : Matroska
Версия формата : Version 4 / Version 2
Размер файла : 1,10 Гбайт
Продолжительность : 46 м.
Общий поток : 3353 Кбит/сек
Дата кодирования : UTC 2013-11-21 16:50:02
Программа кодирования : mkvmerge v6.5.0 ('Isn't she lovely') built on Oct 20 2013 12:50:05
Библиотека кодирования : libebml v1.3.0 + libmatroska v1.4.1

Видео
Идентификатор : 1
Формат : AVC
Формат/Информация : Advanced Video Codec
Профиль формата : High@L4.1
Параметр CABAC формата : Да
Параметр ReFrames формата : 5 кадров
Идентификатор кодека : V_MPEG4/ISO/AVC
Продолжительность : 46 м.
Номинальный битрейт : 3034 Кбит/сек
Ширина : 1280 пикселей
Высота : 720 пикселей
Соотношение сторон : 16:9
Режим частоты кадров : Постоянный
Частота кадров : 25,000 кадров/сек
Цветовое пространство : YUV
Субдискретизация насыщенности : 4:2:0
Битовая глубина : 8 бит
Тип развёртки : Прогрессивная
Бит/(Пиксели*Кадры) : 0.132
Библиотека кодирования : x264 core 129 r2230 1cffe9f
Настройки программы : cabac=1 / ref=5 / deblock=1:-3:-3 / analyse=0x3:0x113 / me=umh / subme=7 / psy=1 / psy_rd=1.00:0.00 / mixed_ref=1 / me_range=16 / chroma_me=1 / trellis=1 / 8x8dct=1 / cqm=0 / deadzone=21,11 / fast_pskip=0 / chroma_qp_offset=-2 / threads=6 / lookahead_threads=1 / sliced_threads=0 / nr=0 / decimate=1 / interlaced=0 / bluray_compat=0 / constrained_intra=0 / bframes=3 / b_pyramid=2 / b_adapt=1 / b_bias=0 / direct=1 / weightb=1 / open_gop=0 / weightp=2 / keyint=250 / keyint_min=25 / scenecut=40 / intra_refresh=0 / rc_lookahead=40 / rc=2pass / mbtree=1 / bitrate=3034 / ratetol=1.0 / qcomp=0.60 / qpmin=0 / qpmax=69 / qpstep=4 / cplxblur=20.0 / qblur=0.5 / ip_ratio=1.40 / aq=1:1.00
Default : Да
Forced : Нет

Аудио #1
Идентификатор : 2
Формат : AAC
Формат/Информация : Advanced Audio Codec
Профиль формата : LC
Идентификатор кодека : A_AAC
Продолжительность : 46 м.
Каналы : 2 канала
Расположение каналов : Front: L R
Частота : 48,0 КГц
Метод сжатия : С потерями
Задержка видео : 9 мс.
Язык : Russian
Default : Нет
Forced : Нет

Аудио #2
Идентификатор : 3
Формат : AAC
Формат/Информация : Advanced Audio Codec
Профиль формата : LC
Идентификатор кодека : A_AAC
Продолжительность : 46 м.
Каналы : 2 канала
Расположение каналов : Front: L R
Частота : 48,0 КГц
Метод сжатия : С потерями
Язык : English
Default : Нет
Forced : Нет

Меню
00:00:00.054 : en:00:00:00.054

Общее
Уникальный идентификатор : 180737716626840650619954353812746810983 (0x87F8D16BEEE9958DBCF1E36617DC3667)
Полное имя : D:КИНОAir Crash Investigation_HDseason 1212-09 Трагедия Локомотива (Lokomotiv Hockey Team Disaster).mkv
Формат : Matroska
Версия формата : Version 4 / Version 2
Размер файла : 916 Мбайт
Продолжительность : 44 м.
Общий поток : 2848 Кбит/сек
Дата кодирования : UTC 2013-11-22 15:14:27
Программа кодирования : mkvmerge v6.5.0 ('Isn't she lovely') built on Oct 20 2013 12:50:05
Библиотека кодирования : libebml v1.3.0 + libmatroska v1.4.1

Видео
Идентификатор : 1
Формат : AVC
Формат/Информация : Advanced Video Codec
Профиль формата : High@L4.1
Параметр CABAC формата : Да
Параметр ReFrames формата : 5 кадров
Идентификатор кодека : V_MPEG4/ISO/AVC
Продолжительность : 44 м.
Ширина : 1280 пикселей
Высота : 720 пикселей
Соотношение сторон : 16:9
Режим частоты кадров : Постоянный
Частота кадров : 25,000 кадров/сек
Цветовое пространство : YUV
Субдискретизация насыщенности : 4:2:0
Битовая глубина : 8 бит
Тип развёртки : Прогрессивная
Библиотека кодирования : x264 core 140 r2377 1ca7bb9
Настройки программы : cabac=1 / ref=5 / deblock=1:-2:-1 / analyse=0x3:0x113 / me=umh / subme=9 / psy=1 / psy_rd=1.00:0.00 / mixed_ref=1 / me_range=16 / chroma_me=1 / trellis=1 / 8x8dct=1 / cqm=0 / deadzone=21,11 / fast_pskip=1 / chroma_qp_offset=-2 / threads=12 / lookahead_threads=1 / sliced_threads=0 / nr=0 / decimate=1 / interlaced=0 / bluray_compat=0 / constrained_intra=0 / bframes=16 / b_pyramid=2 / b_adapt=1 / b_bias=0 / direct=1 / weightb=1 / open_gop=0 / weightp=2 / keyint=250 / keyint_min=23 / scenecut=40 / intra_refresh=0 / rc_lookahead=40 / rc=crf / mbtree=1 / crf=21.0 / qcomp=0.60 / qpmin=0 / qpmax=69 / qpstep=4 / ip_ratio=1.40 / aq=1:1.00
Язык : English
Default : Да
Forced : Нет

Аудио #1
Идентификатор : 2
Формат : AAC
Формат/Информация : Advanced Audio Codec
Профиль формата : LC
Идентификатор кодека : A_AAC
Продолжительность : 44 м.
Каналы : 2 канала
Расположение каналов : Front: L R
Частота : 48,0 КГц
Метод сжатия : С потерями
Задержка видео : 9 мс.
Язык : Russian
Default : Нет
Forced : Нет

Аудио #2
Идентификатор : 3
Формат : AC-3
Формат/Информация : Audio Coding 3
Расширение режима : CM (complete main)
Параметр Endianness формата : Big
Идентификатор кодека : A_AC3
Продолжительность : 44 м.
Вид битрейта : Постоянный
Битрейт : 384 Кбит/сек
Каналы : 6 каналов
Расположение каналов : Front: L C R, Side: L R, LFE
Частота : 48,0 КГц
Битовая глубина : 16 бит
Метод сжатия : С потерями
Размер потока : 124 Мбайт (13%)
Язык : English
Default : Нет
Forced : Нет





   Похожие торренты   Торрент   Размер 
В этой теме нет новых непрочитанных сообщений. Расследования авиакатастроф / Air Crash Investigation (2003-2012) SATRip

308 | 304

56.58 ГБ

В этой теме нет новых непрочитанных сообщений. Расследования авиакатастроф / Air Crash Investigation (2003-2012) SATRip

13 | 42

64.99 ГБ

В этой теме нет новых непрочитанных сообщений. Расследования авиакатастроф / Air Crash Investigation (2003-2012) HDTV 1080i

5 | 43

90.49 ГБ

В этой теме нет новых непрочитанных сообщений. Расследования авиакатастроф / Air Crash Investigation (2003-2012) HDTV 1080i

1 | 2

54.84 ГБ

В этой теме нет новых непрочитанных сообщений. Расследования авиакатастроф / Air Crash Investigation [S08] (2011) HDTVRip 1080i

14 | 5

20.02 ГБ

В этой теме нет новых непрочитанных сообщений. Расследования авиакатастроф / Air Crash Investigation [S15] (2016) HDTV 1080i

20 | 5

18.67 ГБ

В этой теме нет новых непрочитанных сообщений. Расследования авиакатастроф / Air Crash Investigation [16x03,05 из 10] (2016) HDTV 1080i

22 | 0

4.17 ГБ




Вы не можете начинать темы
Вы не можете отвечать на сообщения
Вы не можете редактировать свои сообщения
Вы не можете удалять свои сообщения
Вы не можете добавлять вложения

Перейти:  
Для Мосгорсуда, Роскомнадзора и рекламодателей: mosgorsud-torrent[собачка]yandex.ru
 Вход
ppkBB3cker v.2 © 2008-2014 @ PPK
[ Time : 0.024s | 16 Queries | GZIP : Off ]

Торрент трекер RUTOR.IN, Не можете зайти на rutor.org? Какой новый адрес рутор? Какое зеркало рутор? Не работает rutor.org и зеркала? Тогда наш торрент специально для вас. Rutor.in неофициальное зеркало rutor. В случае если у Вас заблокирован rutor или вдруг Вы не можете на него зайти, то Вы без труда сможете скачать бесплатно и без рекламы последние новинки кино, игр, сериалов и прочего у нас, на Rutor.in. Не нужно использовать прокси, чтобы зайти на рутор, достаточно воспользоваться нашим ресурсом. Все новые фильмы, игры, сериалы, книги и музыка за 2013 и 2014 годы через торрент бесплатно. Скачивайте фильмы в хорошем качестве, игры для пк, xbox, playstation без регистрации. У нас вы найдете новые Зарубежные сериалы и Русские сериалы 2013, 2014, 2015 годов. Оставайтесь с нами, качайте любимые фильмы, игры, сериалы, книги и музыку.