img image001 image001 image001 image001 image001 image001 image001 image001 image001 image001 image001 image001 image001 image001 image001

Planets Sun Sun Sun
Статистика раздачи
Автор: Nickolas3434 | Размер: 2.66 ГБ | Добавлен: 15 мар 2014
Раздают: 202    Качают: 75
Скачать торрент
Скачать торрент
Описание торрента

СообщениеДобавлено: 15 мар 2014 

Информация о фильме
Название: BBC: Сокрытые миры
Оригинальное название: Hidden Kingdoms
Год выхода: 2014
Жанр: Документальный, научно-познавательный, природа, фауна, исследование
Режиссер: Саймон Белл

О фильме:
Новый инновационный сериал от мастеров жанра канала ВВС. На этот раз мы не просто станем свидетелями жизни животных, а перенесемся в мир миниатюры, где маленькие существа борются за жизнь наравне с большими и сильными обитателями фауны. Мы увидим, как они видят нас. Сможем заметить, как от движений маленьких животных шевелятся травинки. Уникальный спектр съемки позволит уловить самые незаметные движения. Мы узнаем мир их глазами, в полной мере ощутив себя гостями парка Юрского периода. Леса Борнео, пустыни Африки и Аризоны, мрачные леса Северной Америки и даже городские джунгли Токио и Рио! Они повсюду, они живут по своим законам, но настало время раскрыть большие тайны маленьких существ и еще раз восхититься уникальной и мудрой природой нашей планеты.

01. Under Open Skies | Под открытым небом

Первая серия это истории о двух юных существах вынужденных рано повзрослеть. В Африканской саванне слоновый прыгунчик узнает что скорость является секретом выживания, а в Американской пустыне Сонора молодой кузнечиковый хомячок научится противостоять смертоносным тварям Дикого Запада.

02. Secret Forests | Таинственные леса

03. Urban Jungles | Городские джунгли

Общее
Уникальный идентификатор : 190013992456449654624083541788603360099 (0x8EF35D21806C67B4A8458495CB1AA363)
Полное имя : Hidden.Kingdoms.01.HDTV.720p.NewStudio.TV.mkv
Формат : Matroska
Версия формата : Version 4 / Version 2
Размер файла : 938 Мбайт
Продолжительность : 48 м.
Общий поток : 2688 Кбит/сек
Дата кодирования : UTC 2014-02-08 17:52:31
Программа кодирования : mkvmerge v6.7.0 ('Back to the Ground') 32bit built on Jan 8 2014 15:03:17
Библиотека кодирования : libebml v1.3.0 + libmatroska v1.4.1

Видео
Идентификатор : 1
Формат : AVC
Формат/Информация : Advanced Video Codec
Профиль формата : Main@L3.1
Параметр CABAC формата : Да
Параметр ReFrames формата : 4 кадра
Идентификатор кодека : V_MPEG4/ISO/AVC
Продолжительность : 48 м.
Битрейт : 2442 Кбит/сек
Ширина : 1280 пикселей
Высота : 720 пикселей
Соотношение сторон : 16:9
Режим частоты кадров : Постоянный
Частота кадров : 25,000 кадров/сек
Цветовое пространство : YUV
Субдискретизация насыщенности : 4:2:0
Битовая глубина : 8 бит
Тип развёртки : Прогрессивная
Бит/(Пиксели*Кадры) : 0.106
Размер потока : 852 Мбайт (91%)
Библиотека кодирования : x264 core 119
Настройки программы : cabac=1 / ref=1 / deblock=1:0:0 / analyse=0x1:0x1 / me=dia / subme=1 / psy=1 / psy_rd=1.00:0.00 / mixed_ref=0 / me_range=16 / chroma_me=1 / trellis=0 / 8x8dct=0 / cqm=0 / deadzone=21,11 / fast_pskip=1 / chroma_qp_offset=0 / threads=4 / sliced_threads=0 / nr=0 / decimate=1 / interlaced=0 / bluray_compat=0 / constrained_intra=0 / bframes=3 / b_pyramid=2 / b_adapt=1 / b_bias=0 / direct=1 / weightb=1 / open_gop=0 / weightp=1 / keyint=250 / keyint_min=25 / scenecut=40 / intra_refresh=0 / rc=crf / mbtree=0 / crf=23.0 / qcomp=0.60 / qpmin=0 / qpmax=69 / qpstep=4 / ip_ratio=1.40 / pb_ratio=1.30 / aq=1:1.00
Default : Да
Forced : Нет

Аудио
Идентификатор : 2
Формат : AC-3
Формат/Информация : Audio Coding 3
Расширение режима : CM (complete main)
Параметр Endianness формата : Big
Идентификатор кодека : A_AC3
Продолжительность : 48 м.
Вид битрейта : Постоянный
Битрейт : 192 Кбит/сек
Каналы : 2 канала
Расположение каналов : Front: L R
Частота : 48,0 КГц
Битовая глубина : 16 бит
Метод сжатия : С потерями
Задержка видео : -40 мс.
Размер потока : 67,0 Мбайт (7%)
Default : Да
Forced : Нет

Страна: Великобритания
Студия: British Broadcasting Corporation (BBC)
Продолжительность: 3 x ~ 00:43:00
Перевод: Авторский (одноголосый закадровый) Владимир Курдов

Файл
Кодек: MPEG-4 AVC
Качество: HDTVRip 720p
Видео: ~ 2442 Кбит/с, 1280x720, 25 кадр/с
Звук: AC3, 2 ch, 192 Кбит/с



Релиз от:



   Похожие торренты   Торрент   Размер 
В этой теме нет новых непрочитанных сообщений. BBC: Сокрытые миры / Hidden Kingdoms [s01] (2014) HDTVRip от NewStudio

204 | 70

1.61 ГБ

В этой теме нет новых непрочитанных сообщений. BBC: Сокрытые миры / BBC: Hidden Kingdoms [01x01-02 из 03] (2014) HDTVRip от ImperiaFilm

80 | 36

1.07 ГБ

В этой теме нет новых непрочитанных сообщений. BBC: Сокрытые миры / Hidden Kingdoms [s01] (2014) BDRip 720p от HDClub

45 | 10

9.66 ГБ

В этой теме нет новых непрочитанных сообщений. Сокрытые миры / Hidden Kingdoms [S01] (2014) BDRip 1080p от HDCLUB

53 | 9

14.9 ГБ

В этой теме нет новых непрочитанных сообщений. Новые миры / New Worlds [S01] (2014) HDTVRip 720p | BaibaKo

104 | 74

4.01 ГБ

В этой теме нет новых непрочитанных сообщений. Seven Kingdoms: Завоеватели / Seven Kingdoms: Conquest (2008) PC | Лицензия

274 | 4

4.12 ГБ

В этой теме нет новых непрочитанных сообщений. Новые миры / New Worlds [S01] (2014) HDTVRip | BaibaKo

392 | 254

3.09 ГБ




Вы не можете начинать темы
Вы не можете отвечать на сообщения
Вы не можете редактировать свои сообщения
Вы не можете удалять свои сообщения
Вы не можете добавлять вложения

Перейти:  
Для Мосгорсуда, Роскомнадзора и рекламодателей: mosgorsud-torrent[собачка]yandex.ru
 Вход
ppkBB3cker v.2 © 2008-2014 @ PPK
[ Time : 0.042s | 15 Queries | GZIP : Off ]

Торрент трекер RUTOR.IN, Не можете зайти на rutor.org? Какой новый адрес рутор? Какое зеркало рутор? Не работает rutor.org и зеркала? Тогда наш торрент специально для вас. Rutor.in неофициальное зеркало rutor. В случае если у Вас заблокирован rutor или вдруг Вы не можете на него зайти, то Вы без труда сможете скачать бесплатно и без рекламы последние новинки кино, игр, сериалов и прочего у нас, на Rutor.in. Не нужно использовать прокси, чтобы зайти на рутор, достаточно воспользоваться нашим ресурсом. Все новые фильмы, игры, сериалы, книги и музыка за 2013 и 2014 годы через торрент бесплатно. Скачивайте фильмы в хорошем качестве, игры для пк, xbox, playstation без регистрации. У нас вы найдете новые Зарубежные сериалы и Русские сериалы 2013, 2014, 2015 годов. Оставайтесь с нами, качайте любимые фильмы, игры, сериалы, книги и музыку.