img image001 image001 image001 image001 image001 image001 image001 image001 image001 image001 image001 image001 image001 image001 image001

Planets Sun Sun Sun
Статистика раздачи
Автор: Nickolas3434 | Размер: 33.75 ГБ | Добавлен: 21 мар 2014
Раздают: 14    Качают: 32
Скачать торрент
Скачать торрент
Описание торрента

СообщениеДобавлено: 21 мар 2014 

Информация о фильме
Название: Запретный город
Оригинальное название: The Forbidden City
Год выхода: 2005
Жанр: Документальный, история, архитектура, искуство
Режиссер: Чанг Чохи
В ролях: ...

О фильме:
Запретный город – когда-то эти дворцы и сады принадлежали императорской семье. Здесь происходила смена династий, шла борьба за власть, плелись интриги, хранились коллекции драгоценных предметов и произведений искусства. И простой смертный не мог войти в ворота Запретного города. Теперь он открыт для туристов, а у нас есть возможность подробно ознакомиться с его историей.
01. Закладка Запретного города / Bookmark Forbidden City
Кто делал историю, и кто создал величайшую в истории цивилизацию. В первый год правления императора Юн Лэ (1403 г.) министр церемоний предложил перенести престол из Нанкина в Бейлин. Так Бейлин превратился в столичный город Пекин, и здесь начали возводить императорский дворец.
02. Апогей эры процветания / Apogee era of prosperity
Мы узнаем, какие события произошли в Китае в эпоху правления императора Цинской династии Шун Жи, и какую роль в жизни Запретного города сыграла семья архитекторов Ли.
03. Управление страной с помощью церемоний / Management of the country with the help of ceremonies
Мы узнаем, какую роль играли разные ворота и дворцы Запретного города в дни таких праздников, как день рождения императора, восшествие на трон или день зимнего солнцестояния, когда солнечный свет достигал самого дальнего зала Верховной Гармонии.
04. Управление государственными делами / Management of public affairs
В Запретном городе почти 10 тысяч ворот и дверей. Мы узнаем, какую роль они играли в процессе управления государством, что происходило в Зале испытания душ, и чем занимался Большой секретариат во время правления династии Мин.
05. Между государством и семьей / Between state and family
Во времена правления императорских династий Запретный город был подобен гигантской сцене, где разворачивались драмы, но никогда не поднимали занавес. Ворота Небесной чистоты делили город на рабочую зону и жилые помещения. Мы попробуем проследить за жизнью бывших обитателей дворца и разобраться в их отношениях.
06. Фарфор Дворцового музея / Porcelain Palace Museum
В Дворцовом музее располагался комплекс Нансян Суо, где князья династии Цин жили и учились. Сегодня здесь отдел изучения древних артефактов. Мы познакомимся с экспертом, который занимается оценкой фарфоровых изделий, и узнаем историю китайского фарфора.
07. Живопись и каллиграфические работы в императорском дворце / Paintings and calligraphic works in the Imperial Palace
Маленькую комнату площадью 6 кв.м император Цяньлун переименовал в «Комнату трёх сокровищ». Здесь он часто сидел и изучал 3 каллиграфические работы, которые считал лучшими из коллекции династии Цин. Цяньлун высоко ценил искусство живописи и каллиграфии и открыл новую страницу в истории искусств Китая.
08. Нефритовые предметы во дворце-музее / Jade objects in the Palace Museum Palace
В древности у китайцев нефрит был символом высоких моральных принципов, поэтому в императорском дворце особое место отводится нефритовым предметам и украшениям. Мы также узнаем загадочную историю нефритовой императорской печати.
09. Запретный город и западное влияние / Forbidden City and the Western influence
Во время правления императора Цан-Луна самым желанным подарком иностранных послов были часы. Мы узнаем о том, как и зачем европейцы пытались проникнуть в Запретный город.
10. От императорского дворца к дворцу-музею / From the Imperial Palace to the Palace-Museum
В 1925 году был открыт для публики императорский дворец. Он больше не является собственностью императора. Мы узнаем о том, что стало с коллекциями бесценных украшений и сокровищами императорских династий после пожара во дворце Счастливой судьбы.
11. Перемещение и утрата национальных ценностей / Displacement and loss of national values
В 1924 г. последний император Цинской династии Пу И был изгнан из Запретного города. В мирные времена при императорском дворе собирали несметные сокровище, а эпохи перемен всегда были связаны с утратой культурных ценностей. Мы постараемся выяснить, что именно было утеряно.
12. Новая Эра / New Era
Мы узнаем о том, как в Китае началась новая эра, и Императорский дворец перешёл в собственность государства, избежав разрушений.


Страна: Китай
Продолжительность: 12 х ~ 00:45:30
Перевод: Профессиональный одноголосый (Фильм переведен и озвучен на производственной базе ТПО "Ред Медиа")

Автор постера к раздаче - Anomis

Файл
Кодек: AVC
Качество: HDTV 1080i
Видео: ~ 9000 Кбит/с, 1920x1080, 25 кадр/с
Звук: AC3, 2 ch, 192 Кбит/с

Общее
Идентификатор : 6 (0x6)
Полное имя : The Forbidden City (Запретный Город) [1080i]Forbidden City, The - 01 - Запретный Город (Закладка Запретного Города) (1080i).ts
Формат : MPEG-TS
Размер файла : 2,84 Гбайт
Продолжительность : 45 м.
Режим общего битрейта : Переменный
Общий поток : 8975 Кбит/сек

Видео
Идентификатор : 323 (0x143)
Идентификатор меню : 1 (0x1)
Формат : AVC
Формат/Информация : Advanced Video Codec
Профиль формата : Main@L4.0
Параметр CABAC формата : Да
Параметр ReFrames формата : 4 кадра
Параметр GOP формата : M=4, N=32
Идентификатор кодека : 27
Продолжительность : 45 м.
Битрейт : 8338 Кбит/сек
Ширина : 1920 пикселей
Высота : 1080 пикселей
Соотношение сторон : 16:9
Частота кадров : 25,000 кадров/сек
Цветовое пространство : YUV
Субдискретизация насыщенности : 4:2:0
Битовая глубина : 8 бит
Тип развёртки : Чересстрочная
Порядок развёртки : Верхнее поле первое
Бит/(Пиксели*Кадры) : 0.161
Размер потока : 2,64 Гбайт (93%)
Язык : English
Основные цвета : BT.709
Характеристики трансфера : BT.709
Коэффициенты матрицы : BT.709

Аудио
Идентификатор : 403 (0x193)
Идентификатор меню : 1 (0x1)
Формат : MPEG Audio
Версия формата : Version 1
Профиль формата : Layer 2
Идентификатор кодека : 4
Продолжительность : 45 м.
Вид битрейта : Постоянный
Битрейт : 192 Кбит/сек
Каналы : 2 канала
Частота : 48,0 КГц
Метод сжатия : С потерями
Задержка видео : -1 с. 48 мс.
Размер потока : 62,3 Мбайт (2%)
Язык : Russian

Общее
Идентификатор : 6 (0x6)
Полное имя : The Forbidden City (Запретный Город) [1080i]Forbidden City, The - 02 - Запретный Город (Апогей Эры Процветания) (1080i).ts
Формат : MPEG-TS
Размер файла : 3,10 Гбайт
Продолжительность : 44 м.
Режим общего битрейта : Переменный
Общий поток : 9912 Кбит/сек

Видео
Идентификатор : 323 (0x143)
Идентификатор меню : 1 (0x1)
Формат : AVC
Формат/Информация : Advanced Video Codec
Профиль формата : Main@L4.0
Параметр CABAC формата : Да
Параметр ReFrames формата : 4 кадра
Параметр GOP формата : M=4, N=32
Идентификатор кодека : 27
Продолжительность : 44 м.
Битрейт : 9228 Кбит/сек
Ширина : 1920 пикселей
Высота : 1080 пикселей
Соотношение сторон : 16:9
Частота кадров : 25,000 кадров/сек
Цветовое пространство : YUV
Субдискретизация насыщенности : 4:2:0
Битовая глубина : 8 бит
Тип развёртки : Чересстрочная
Порядок развёртки : Верхнее поле первое
Бит/(Пиксели*Кадры) : 0.178
Размер потока : 2,88 Гбайт (93%)
Язык : English
Основные цвета : BT.709
Характеристики трансфера : BT.709
Коэффициенты матрицы : BT.709

Аудио
Идентификатор : 403 (0x193)
Идентификатор меню : 1 (0x1)
Формат : MPEG Audio
Версия формата : Version 1
Профиль формата : Layer 2
Идентификатор кодека : 4
Продолжительность : 44 м.
Вид битрейта : Постоянный
Битрейт : 192 Кбит/сек
Каналы : 2 канала
Частота : 48,0 КГц
Метод сжатия : С потерями
Задержка видео : -1 с. 479 мс.
Размер потока : 61,4 Мбайт (2%)
Язык : Russian

Общее
Идентификатор : 6 (0x6)
Полное имя : The Forbidden City (Запретный Город) [1080i]Forbidden City, The - 03 - Запретный Город (Управление Страной С Помощью Церемоний) (1080i).ts
Формат : MPEG-TS
Размер файла : 3,06 Гбайт
Продолжительность : 45 м.
Режим общего битрейта : Переменный
Общий поток : 9597 Кбит/сек

Видео
Идентификатор : 323 (0x143)
Идентификатор меню : 1 (0x1)
Формат : AVC
Формат/Информация : Advanced Video Codec
Профиль формата : Main@L4.0
Параметр CABAC формата : Да
Параметр ReFrames формата : 4 кадра
Идентификатор кодека : 27
Продолжительность : 45 м.
Битрейт : 8928 Кбит/сек
Ширина : 1920 пикселей
Высота : 1080 пикселей
Соотношение сторон : 16:9
Частота кадров : 25,000 кадров/сек
Цветовое пространство : YUV
Субдискретизация насыщенности : 4:2:0
Битовая глубина : 8 бит
Тип развёртки : Чересстрочная
Порядок развёртки : Верхнее поле первое
Бит/(Пиксели*Кадры) : 0.172
Размер потока : 2,85 Гбайт (93%)
Язык : English
Основные цвета : BT.709
Характеристики трансфера : BT.709
Коэффициенты матрицы : BT.709

Аудио
Идентификатор : 403 (0x193)
Идентификатор меню : 1 (0x1)
Формат : MPEG Audio
Версия формата : Version 1
Профиль формата : Layer 2
Идентификатор кодека : 4
Продолжительность : 45 м.
Вид битрейта : Постоянный
Битрейт : 192 Кбит/сек
Каналы : 2 канала
Частота : 48,0 КГц
Метод сжатия : С потерями
Задержка видео : -1 с. 98 мс.
Размер потока : 62,7 Мбайт (2%)
Язык : Russian

Общее
Идентификатор : 6 (0x6)
Полное имя : The Forbidden City (Запретный Город) [1080i]Forbidden City, The - 04 - Запретный Город (Управление Государственными Делами) (1080i).ts
Формат : MPEG-TS
Размер файла : 2,58 Гбайт
Продолжительность : 45 м.
Режим общего битрейта : Переменный
Общий поток : 8156 Кбит/сек

Видео
Идентификатор : 323 (0x143)
Идентификатор меню : 1 (0x1)
Формат : AVC
Формат/Информация : Advanced Video Codec
Профиль формата : Main@L4.0
Параметр CABAC формата : Да
Параметр ReFrames формата : 4 кадра
Параметр GOP формата : M=4, N=32
Идентификатор кодека : 27
Продолжительность : 45 м.
Битрейт : 7559 Кбит/сек
Ширина : 1920 пикселей
Высота : 1080 пикселей
Соотношение сторон : 16:9
Частота кадров : 25,000 кадров/сек
Цветовое пространство : YUV
Субдискретизация насыщенности : 4:2:0
Битовая глубина : 8 бит
Тип развёртки : Чересстрочная
Порядок развёртки : Верхнее поле первое
Бит/(Пиксели*Кадры) : 0.146
Размер потока : 2,39 Гбайт (93%)
Язык : English
Основные цвета : BT.709
Характеристики трансфера : BT.709
Коэффициенты матрицы : BT.709

Аудио
Идентификатор : 403 (0x193)
Идентификатор меню : 1 (0x1)
Формат : MPEG Audio
Версия формата : Version 1
Профиль формата : Layer 2
Идентификатор кодека : 4
Продолжительность : 45 м.
Вид битрейта : Постоянный
Битрейт : 192 Кбит/сек
Каналы : 2 канала
Частота : 48,0 КГц
Метод сжатия : С потерями
Задержка видео : 139 мс.
Размер потока : 62,3 Мбайт (2%)
Язык : Russian

Общее
Идентификатор : 6 (0x6)
Полное имя : The Forbidden City (Запретный Город) [1080i]Forbidden City, The - 05 - Запретный Город (Между Государством И Семьей) (1080i).ts
Формат : MPEG-TS
Размер файла : 2,54 Гбайт
Продолжительность : 45 м.
Режим общего битрейта : Переменный
Общий поток : 8027 Кбит/сек

Видео
Идентификатор : 323 (0x143)
Идентификатор меню : 1 (0x1)
Формат : AVC
Формат/Информация : Advanced Video Codec
Профиль формата : Main@L4.0
Параметр CABAC формата : Да
Параметр ReFrames формата : 4 кадра
Идентификатор кодека : 27
Продолжительность : 45 м.
Битрейт : 7436 Кбит/сек
Ширина : 1920 пикселей
Высота : 1080 пикселей
Соотношение сторон : 16:9
Частота кадров : 25,000 кадров/сек
Цветовое пространство : YUV
Субдискретизация насыщенности : 4:2:0
Битовая глубина : 8 бит
Тип развёртки : Чересстрочная
Порядок развёртки : Верхнее поле первое
Бит/(Пиксели*Кадры) : 0.143
Размер потока : 2,35 Гбайт (93%)
Язык : English
Основные цвета : BT.709
Характеристики трансфера : BT.709
Коэффициенты матрицы : BT.709

Аудио
Идентификатор : 403 (0x193)
Идентификатор меню : 1 (0x1)
Формат : MPEG Audio
Версия формата : Version 1
Профиль формата : Layer 2
Идентификатор кодека : 4
Продолжительность : 45 м.
Вид битрейта : Постоянный
Битрейт : 192 Кбит/сек
Каналы : 2 канала
Частота : 48,0 КГц
Метод сжатия : С потерями
Задержка видео : 6 мс.
Размер потока : 62,2 Мбайт (2%)
Язык : Russian

Общее
Идентификатор : 6 (0x6)
Полное имя : The Forbidden City (Запретный Город) [1080i]Forbidden City, The - 06 - Запретный Город (Фарфор Дворцового Музея) (1080i).ts
Формат : MPEG-TS
Размер файла : 2,68 Гбайт
Продолжительность : 45 м.
Режим общего битрейта : Переменный
Общий поток : 8415 Кбит/сек

Видео
Идентификатор : 323 (0x143)
Идентификатор меню : 1 (0x1)
Формат : AVC
Формат/Информация : Advanced Video Codec
Профиль формата : Main@L4.0
Параметр CABAC формата : Да
Параметр ReFrames формата : 4 кадра
Параметр GOP формата : M=4, N=32
Идентификатор кодека : 27
Продолжительность : 45 м.
Битрейт : 7805 Кбит/сек
Ширина : 1920 пикселей
Высота : 1080 пикселей
Соотношение сторон : 16:9
Частота кадров : 25,000 кадров/сек
Цветовое пространство : YUV
Субдискретизация насыщенности : 4:2:0
Битовая глубина : 8 бит
Тип развёртки : Чересстрочная
Порядок развёртки : Верхнее поле первое
Бит/(Пиксели*Кадры) : 0.151
Размер потока : 2,49 Гбайт (93%)
Язык : English
Основные цвета : BT.709
Характеристики трансфера : BT.709
Коэффициенты матрицы : BT.709

Аудио
Идентификатор : 403 (0x193)
Идентификатор меню : 1 (0x1)
Формат : MPEG Audio
Версия формата : Version 1
Профиль формата : Layer 2
Идентификатор кодека : 4
Продолжительность : 45 м.
Вид битрейта : Постоянный
Битрейт : 192 Кбит/сек
Каналы : 2 канала
Частота : 48,0 КГц
Метод сжатия : С потерями
Задержка видео : -1 с. 323 мс.
Размер потока : 62,6 Мбайт (2%)
Язык : Russian

Общее
Идентификатор : 6 (0x6)
Полное имя : The Forbidden City (Запретный Город) [1080i]Forbidden City, The - 07 - Запретный Город (Живопись И Каллиграфические Работы В Императорском Дворце) (1080i).ts
Формат : MPEG-TS
Размер файла : 2,72 Гбайт
Продолжительность : 45 м.
Режим общего битрейта : Переменный
Общий поток : 8577 Кбит/сек

Видео
Идентификатор : 323 (0x143)
Идентификатор меню : 1 (0x1)
Формат : AVC
Формат/Информация : Advanced Video Codec
Профиль формата : Main@L4.0
Параметр CABAC формата : Да
Параметр ReFrames формата : 4 кадра
Параметр GOP формата : M=4, N=32
Идентификатор кодека : 27
Продолжительность : 45 м.
Битрейт : 7959 Кбит/сек
Ширина : 1920 пикселей
Высота : 1080 пикселей
Соотношение сторон : 16:9
Частота кадров : 25,000 кадров/сек
Цветовое пространство : YUV
Субдискретизация насыщенности : 4:2:0
Битовая глубина : 8 бит
Тип развёртки : Чересстрочная
Порядок развёртки : Верхнее поле первое
Бит/(Пиксели*Кадры) : 0.154
Размер потока : 2,53 Гбайт (93%)
Язык : English
Основные цвета : BT.709
Характеристики трансфера : BT.709
Коэффициенты матрицы : BT.709

Аудио
Идентификатор : 403 (0x193)
Идентификатор меню : 1 (0x1)
Формат : MPEG Audio
Версия формата : Version 1
Профиль формата : Layer 2
Идентификатор кодека : 4
Продолжительность : 45 м.
Вид битрейта : Постоянный
Битрейт : 192 Кбит/сек
Каналы : 2 канала
Частота : 48,0 КГц
Метод сжатия : С потерями
Задержка видео : -1 с. 84 мс.
Размер потока : 62,4 Мбайт (2%)
Язык : Russian

Общее
Идентификатор : 6 (0x6)
Полное имя : The Forbidden City (Запретный Город) [1080i]Forbidden City, The - 08 - Запретный Город (Нефритовые Предметы Во Дворце Музее) (1080i).ts
Формат : MPEG-TS
Размер файла : 2,73 Гбайт
Продолжительность : 45 м.
Режим общего битрейта : Переменный
Общий поток : 8607 Кбит/сек

Видео
Идентификатор : 323 (0x143)
Идентификатор меню : 1 (0x1)
Формат : AVC
Формат/Информация : Advanced Video Codec
Профиль формата : Main@L4.0
Параметр CABAC формата : Да
Параметр ReFrames формата : 4 кадра
Параметр GOP формата : M=4, N=32
Идентификатор кодека : 27
Продолжительность : 45 м.
Битрейт : 7988 Кбит/сек
Ширина : 1920 пикселей
Высота : 1080 пикселей
Соотношение сторон : 16:9
Частота кадров : 25,000 кадров/сек
Цветовое пространство : YUV
Субдискретизация насыщенности : 4:2:0
Битовая глубина : 8 бит
Тип развёртки : Чересстрочная
Порядок развёртки : Верхнее поле первое
Бит/(Пиксели*Кадры) : 0.154
Размер потока : 2,53 Гбайт (93%)
Язык : English
Основные цвета : BT.709
Характеристики трансфера : BT.709
Коэффициенты матрицы : BT.709

Аудио
Идентификатор : 403 (0x193)
Идентификатор меню : 1 (0x1)
Формат : MPEG Audio
Версия формата : Version 1
Профиль формата : Layer 2
Идентификатор кодека : 4
Продолжительность : 45 м.
Вид битрейта : Постоянный
Битрейт : 192 Кбит/сек
Каналы : 2 канала
Частота : 48,0 КГц
Метод сжатия : С потерями
Задержка видео : -1 с. 79 мс.
Размер потока : 62,3 Мбайт (2%)
Язык : Russian

Общее
Идентификатор : 6 (0x6)
Полное имя : The Forbidden City (Запретный Город) [1080i]Forbidden City, The - 09 - Запретный Город (Запретный Город И Западное Влияние) (1080i).ts
Формат : MPEG-TS
Размер файла : 2,86 Гбайт
Продолжительность : 45 м.
Режим общего битрейта : Переменный
Общий поток : 9020 Кбит/сек

Видео
Идентификатор : 323 (0x143)
Идентификатор меню : 1 (0x1)
Формат : AVC
Формат/Информация : Advanced Video Codec
Профиль формата : Main@L4.0
Параметр CABAC формата : Да
Параметр ReFrames формата : 4 кадра
Идентификатор кодека : 27
Продолжительность : 45 м.
Битрейт : 8380 Кбит/сек
Ширина : 1920 пикселей
Высота : 1080 пикселей
Соотношение сторон : 16:9
Частота кадров : 25,000 кадров/сек
Цветовое пространство : YUV
Субдискретизация насыщенности : 4:2:0
Битовая глубина : 8 бит
Тип развёртки : Чересстрочная
Порядок развёртки : Верхнее поле первое
Бит/(Пиксели*Кадры) : 0.162
Размер потока : 2,65 Гбайт (93%)
Язык : English
Основные цвета : BT.709
Характеристики трансфера : BT.709
Коэффициенты матрицы : BT.709

Аудио
Идентификатор : 403 (0x193)
Идентификатор меню : 1 (0x1)
Формат : MPEG Audio
Версия формата : Version 1
Профиль формата : Layer 2
Идентификатор кодека : 4
Продолжительность : 45 м.
Вид битрейта : Постоянный
Битрейт : 192 Кбит/сек
Каналы : 2 канала
Частота : 48,0 КГц
Метод сжатия : С потерями
Задержка видео : -1 с. 142 мс.
Размер потока : 62,3 Мбайт (2%)
Язык : German

Общее
Идентификатор : 6 (0x6)
Полное имя : The Forbidden City (Запретный Город) [1080i]Forbidden City, The - 10 - Запретный Город (От Императорского Дворца К Дворцу Музею) (1080i).ts
Формат : MPEG-TS
Размер файла : 2,67 Гбайт
Продолжительность : 45 м.
Режим общего битрейта : Переменный
Общий поток : 8438 Кбит/сек

Видео
Идентификатор : 323 (0x143)
Идентификатор меню : 1 (0x1)
Формат : AVC
Формат/Информация : Advanced Video Codec
Профиль формата : Main@L4.0
Параметр CABAC формата : Да
Параметр ReFrames формата : 4 кадра
Параметр GOP формата : M=4, N=32
Идентификатор кодека : 27
Продолжительность : 45 м.
Битрейт : 7827 Кбит/сек
Ширина : 1920 пикселей
Высота : 1080 пикселей
Соотношение сторон : 16:9
Частота кадров : 25,000 кадров/сек
Цветовое пространство : YUV
Субдискретизация насыщенности : 4:2:0
Битовая глубина : 8 бит
Тип развёртки : Чересстрочная
Порядок развёртки : Верхнее поле первое
Бит/(Пиксели*Кадры) : 0.151
Размер потока : 2,48 Гбайт (93%)
Язык : English
Основные цвета : BT.709
Характеристики трансфера : BT.709
Коэффициенты матрицы : BT.709

Аудио
Идентификатор : 403 (0x193)
Идентификатор меню : 1 (0x1)
Формат : MPEG Audio
Версия формата : Version 1
Профиль формата : Layer 2
Идентификатор кодека : 4
Продолжительность : 45 м.
Вид битрейта : Постоянный
Битрейт : 192 Кбит/сек
Каналы : 2 канала
Частота : 48,0 КГц
Метод сжатия : С потерями
Задержка видео : -1 с. 275 мс.
Размер потока : 62,3 Мбайт (2%)
Язык : Russian

Общее
Идентификатор : 6 (0x6)
Полное имя : The Forbidden City (Запретный Город) [1080i]Forbidden City, The - 11 - Запретный Город (Перемещение И Утрата Национальных Ценностей) (1080i).ts
Формат : MPEG-TS
Размер файла : 2,98 Гбайт
Продолжительность : 45 м.
Режим общего битрейта : Переменный
Общий поток : 9402 Кбит/сек

Видео
Идентификатор : 323 (0x143)
Идентификатор меню : 1 (0x1)
Формат : AVC
Формат/Информация : Advanced Video Codec
Профиль формата : Main@L4.0
Параметр CABAC формата : Да
Параметр ReFrames формата : 4 кадра
Идентификатор кодека : 27
Продолжительность : 45 м.
Битрейт : 8744 Кбит/сек
Ширина : 1920 пикселей
Высота : 1080 пикселей
Соотношение сторон : 16:9
Частота кадров : 25,000 кадров/сек
Цветовое пространство : YUV
Субдискретизация насыщенности : 4:2:0
Битовая глубина : 8 бит
Тип развёртки : Чересстрочная
Порядок развёртки : Верхнее поле первое
Бит/(Пиксели*Кадры) : 0.169
Размер потока : 2,77 Гбайт (93%)
Язык : English
Основные цвета : BT.709
Характеристики трансфера : BT.709
Коэффициенты матрицы : BT.709

Аудио
Идентификатор : 403 (0x193)
Идентификатор меню : 1 (0x1)
Формат : MPEG Audio
Версия формата : Version 1
Профиль формата : Layer 2
Идентификатор кодека : 4
Продолжительность : 45 м.
Вид битрейта : Постоянный
Битрейт : 192 Кбит/сек
Каналы : 2 канала
Частота : 48,0 КГц
Метод сжатия : С потерями
Задержка видео : -1 с. 494 мс.
Размер потока : 62,2 Мбайт (2%)
Язык : Russian

Общее
Идентификатор : 6 (0x6)
Полное имя : The Forbidden City (Запретный Город) [1080i]Forbidden City, The - 12 - Запретный Город (Запретный Город) (1080i).ts
Формат : MPEG-TS
Размер файла : 2,99 Гбайт
Продолжительность : 45 м.
Режим общего битрейта : Переменный
Общий поток : 9417 Кбит/сек

Видео
Идентификатор : 323 (0x143)
Идентификатор меню : 1 (0x1)
Формат : AVC
Формат/Информация : Advanced Video Codec
Профиль формата : Main@L4.0
Параметр CABAC формата : Да
Параметр ReFrames формата : 4 кадра
Идентификатор кодека : 27
Продолжительность : 45 м.
Битрейт : 8757 Кбит/сек
Ширина : 1920 пикселей
Высота : 1080 пикселей
Соотношение сторон : 16:9
Частота кадров : 25,000 кадров/сек
Цветовое пространство : YUV
Субдискретизация насыщенности : 4:2:0
Битовая глубина : 8 бит
Тип развёртки : Чересстрочная
Порядок развёртки : Верхнее поле первое
Бит/(Пиксели*Кадры) : 0.169
Размер потока : 2,78 Гбайт (93%)
Язык : English
Основные цвета : BT.709
Характеристики трансфера : BT.709
Коэффициенты матрицы : BT.709

Аудио
Идентификатор : 403 (0x193)
Идентификатор меню : 1 (0x1)
Формат : MPEG Audio
Версия формата : Version 1
Профиль формата : Layer 2
Идентификатор кодека : 4
Продолжительность : 45 м.
Вид битрейта : Постоянный
Битрейт : 192 Кбит/сек
Каналы : 2 канала
Частота : 48,0 КГц
Метод сжатия : С потерями
Задержка видео : -1 с. 268 мс.
Размер потока : 62,3 Мбайт (2%)
Язык : Russian






   Похожие торренты   Торрент   Размер 
В этой теме нет новых непрочитанных сообщений. Тайны древности. Запретный город: династия и судьба / Ancient Mysteries. The Forbidden City: Dynasty and Destiny (1996) DVDRip-AVC от Тorrent-Хzona

7 | 2

645.61 МБ

В этой теме нет новых непрочитанных сообщений. Запретный плод / Forbidden (2002) DVDRip | A

132 | 35

1.45 ГБ

В этой теме нет новых непрочитанных сообщений. Запретный танец / The Forbidden Dance (1990) DVDRip | A

3 | 1

1.46 ГБ

В этой теме нет новых непрочитанных сообщений. Запретный танец / The Forbidden Dance (1990) DVDRip | P

19 | 28

1.45 ГБ

В этой теме нет новых непрочитанных сообщений. Запретный мир / Forbidden World / Mutant (1982) DVDRip

0 | 2

667.27 МБ

В этой теме нет новых непрочитанных сообщений. Запретный мир / Forbidden World / Mutant (1982) HDRip

12 | 1

1.46 ГБ

В этой теме нет новых непрочитанных сообщений. Запретное / Запретный плод / Forbidden (2002) DVDRip от olegek70 | A

114 | 40

1.45 ГБ




Вы не можете начинать темы
Вы не можете отвечать на сообщения
Вы не можете редактировать свои сообщения
Вы не можете удалять свои сообщения
Вы не можете добавлять вложения

Перейти:  
Для Мосгорсуда, Роскомнадзора и рекламодателей: mosgorsud-torrent[собачка]yandex.ru
 Вход
ppkBB3cker v.2 © 2008-2014 @ PPK
[ Time : 0.047s | 15 Queries | GZIP : Off ]

Торрент трекер RUTOR.IN, Не можете зайти на rutor.org? Какой новый адрес рутор? Какое зеркало рутор? Не работает rutor.org и зеркала? Тогда наш торрент специально для вас. Rutor.in неофициальное зеркало rutor. В случае если у Вас заблокирован rutor или вдруг Вы не можете на него зайти, то Вы без труда сможете скачать бесплатно и без рекламы последние новинки кино, игр, сериалов и прочего у нас, на Rutor.in. Не нужно использовать прокси, чтобы зайти на рутор, достаточно воспользоваться нашим ресурсом. Все новые фильмы, игры, сериалы, книги и музыка за 2013 и 2014 годы через торрент бесплатно. Скачивайте фильмы в хорошем качестве, игры для пк, xbox, playstation без регистрации. У нас вы найдете новые Зарубежные сериалы и Русские сериалы 2013, 2014, 2015 годов. Оставайтесь с нами, качайте любимые фильмы, игры, сериалы, книги и музыку.