img image001 image001 image001 image001 image001 image001 image001 image001 image001 image001 image001 image001 image001 image001 image001

Planets Sun Sun Sun
Статистика раздачи
Автор: Nickolas3434 | Размер: 1.93 ГБ | Добавлен: 23 мар 2014
Раздают: 260    Качают: 59
Скачать торрент
Скачать торрент
Описание торрента

СообщениеДобавлено: 23 мар 2014 


Информация о фильме
Название: Поколение 92 / The Class of '92
Год выпуска: 2013
Жанр: Документальный, Спорт
Режиссер: Бенжамин Тернер, Гейб Тернер
Участники: Дэвид Бекхэм, Тони Блэр, Дэнни Бойл, Никки Батт, Эрик Кантона, Райан Гиггз, Гари Невилл, Фил Невилл, Пол Скоулз


Описание:
Эта история расскажет о пути к мировой славе шести молодых футболистов из «Манчестер Юнайтед»: Дэвида Бекхэма, Райана Гиггза, Пола Скоулза, Ники Батта, Фила и Гари Невилл.
Фильм охватывает семилетний период их карьеры, начиная с 1992 года, когда команда впервые за 30 лет выиграла Молодежный Кубок Англии и заканчивая 1999-м, когда Лига чемпионов УЕФА стала настоящим триумфом для «Манчестер Юнайтед».




Продолжительность: 01:35:31
Выпущено: Великобритания, Boundless, Fulwell 73
Перевод: Многоголосый закадровый, профессиональный (Jetvis Studio)
Файл
Формат: MKV
Качество: HDRip
Видео: MPEG-4 AVC/H.264, ~2700 Кбит/сек, 1280x720
Аудио: AC3 2.0, 192 Кбит/сек

Общее
Уникальный идентификатор : 170158416744004166889373254748769838836 (0x800351AA9E4EBA48920F8792D12B66F4)
Полное имя : The Class of 92.mkv
Формат : Matroska
Версия формата : Version 4 / Version 2
Размер файла : 1,93 Гбайт
Продолжительность : 1 ч. 35 м.
Общий поток : 2892 Кбит/сек
Дата кодирования : UTC 2014-02-23 15:53:11
Программа кодирования : mkvmerge v6.6.0 ('The Edge Of The In Between') built on Dec 1 2013 17:55:00
Библиотека кодирования : libebml v1.3.0 + libmatroska v1.4.1
Видео
Идентификатор : 1
Формат : AVC
Формат/Информация : Advanced Video Codec
Профиль формата : High@L4.1
Параметр CABAC формата : Да
Параметр ReFrames формата : 3 кадра
Идентификатор кодека : V_MPEG4/ISO/AVC
Продолжительность : 1 ч. 35 м.
Битрейт : 2700 Кбит/сек
Ширина : 1280 пикселей
Высота : 720 пикселей
Соотношение сторон : 16:9
Режим частоты кадров : Постоянный
Частота кадров : 25,000 кадров/сек
Цветовое пространство : YUV
Субдискретизация насыщенности : 4:2:0
Битовая глубина : 8 бит
Тип развёртки : Прогрессивная
Бит/(Пиксели*Кадры) : 0.117
Размер потока : 1,76 Гбайт (91%)
Библиотека кодирования : x264 core 116 r2019M 9cc407d
Настройки программы : cabac=1 / ref=3 / deblock=1:0:0 / analyse=0x3:0x133 / me=hex / subme=7 / psy=1 / psy_rd=1.00:0.20 / mixed_ref=1 / me_range=16 / chroma_me=1 / trellis=1 / 8x8dct=1 / cqm=0 / deadzone=21,11 / fast_pskip=1 / chroma_qp_offset=-3 / threads=8 / sliced_threads=0 / nr=0 / decimate=1 / interlaced=0 / bluray_compat=0 / constrained_intra=0 / bframes=3 / b_pyramid=1 / b_adapt=2 / b_bias=0 / direct=3 / weightb=1 / open_gop=0 / weightp=2 / keyint=250 / keyint_min=25 / scenecut=40 / intra_refresh=0 / rc_lookahead=40 / rc=2pass / mbtree=1 / bitrate=2700 / ratetol=1.0 / qcomp=0.60 / qpmin=10 / qpmax=51 / qpstep=4 / cplxblur=20.0 / qblur=0.5 / ip_ratio=1.40 / aq=1:1.00
Язык : English
Default : Да
Forced : Нет
Аудио
Идентификатор : 2
Формат : AC-3
Формат/Информация : Audio Coding 3
Расширение режима : CM (complete main)
Параметр Endianness формата : Big
Идентификатор кодека : A_AC3
Продолжительность : 1 ч. 35 м.
Вид битрейта : Постоянный
Битрейт : 192 Кбит/сек
Каналы : 2 канала
Расположение каналов : Front: L R
Частота : 48,0 КГц
Битовая глубина : 16 бит
Метод сжатия : С потерями
Размер потока : 131 Мбайт (7%)
Язык : English
Default : Да
Forced : Нет






   Похожие торренты   Торрент   Размер 
В этой теме нет новых непрочитанных сообщений. Поколение 92 / Класс 92 / The Class of '92 (2013) DVDRip | L2

66 | 61

1.37 ГБ

В этой теме нет новых непрочитанных сообщений. Класс (Поколение) 92: Не в своей лиге / Class of '92: Out of Their League / BBC (2015) WEB-DLRip 720p | Jetvis Studio

12 | 3

2.35 ГБ

В этой теме нет новых непрочитанных сообщений. Класс / Class (1983) HDRip от ImperiaFilm | P2

4 | 0

1.46 ГБ

В этой теме нет новых непрочитанных сообщений. Люди Икс: Первый класс / X-Men: First Class (2011) HDRip-AVC

72 | 7

742.33 МБ

В этой теме нет новых непрочитанных сообщений. Люди Икс: Первый класс / X-Men: First Class (2011) HDRip | Лицензия

20 | 6

895.89 МБ

В этой теме нет новых непрочитанных сообщений. Люди Икс: Первый класс / X-Men: First Class (2011) HDRip | Лицензия

633 | 18

1.37 ГБ

В этой теме нет новых непрочитанных сообщений. Люди Икс: Первый класс / X-Men: First Class (2011) HDRip | Лицензия

5 | 4

2.05 ГБ




Вы не можете начинать темы
Вы не можете отвечать на сообщения
Вы не можете редактировать свои сообщения
Вы не можете удалять свои сообщения
Вы не можете добавлять вложения

Перейти:  
Для Мосгорсуда, Роскомнадзора и рекламодателей: mosgorsud-torrent[собачка]yandex.ru
 Вход
ppkBB3cker v.2 © 2008-2014 @ PPK
[ Time : 0.033s | 15 Queries | GZIP : Off ]

cron