img image001 image001 image001 image001 image001 image001 image001 image001 image001 image001 image001 image001 image001 image001 image001

Planets Sun Sun Sun
Статистика раздачи
Автор: Nickolas3434 | Размер: 651.34 МБ | Добавлен: 26 мар 2014
Раздают: 64    Качают: 10
Скачать торрент
Скачать торрент
Описание торрента

СообщениеДобавлено: 26 мар 2014 

Информация о фильме
Название: Правда о Казанове
Оригинальное название: The real Casanova
Год выхода: 2003
Жанр: Биография, документальный, история
Режиссер: Neil Rawles
В ролях: Джон Симм, Альдо Алессио, Пол Марк, Дэвис Донато, Рестайно Count, Emile Targhetta, Lottie Alexander, Jocelyn Brook-Hamilton, Эмма Гиллард, Christina Baker, Carolyn Hume

О фильме:
Джа́комо Джирола́мо Казано́ва...Кто не слышал об этом удивительном человеке? — известный итальянский авантюрист, путешественник и писатель, автор обстоятельной автобиографии «История моей жизни» (фр. Histoire de ma vie). Благодаря этой книге он настолько прославился своими многочисленными любовными похождениями, что само его имя стало нарицательным и используется теперь в значении «женский обольститель». Если верить его мемуарам, Казанова встречался с европейскими монархами, папами, кардиналами и такими выдающимися деятелями эпохи Просвещения, как Вольтер, Моцарт и Гёте. Свои последние годы он провёл в Богемии, будучи смотрителем библиотеки в замке графа Вальдштейна; именно там он и написал историю своей жизни.

Страна: Великобритания
Студия: Darlow Smithson Productions
Продолжительность: 00:48:43
Перевод: Одноголосый закадровый профессиональный

Файл
Кодек: XviD
Качество: SATRip
Видео: 640х480, 1635 Kbps, 25.000 fps
Звук: AC-3, 2 channels, 224 Kbps



General
Complete name : L:Pshichko66Na zapis'Pravda o Kazanove.avi
Format : AVI
Format/Info : Audio Video Interleave
File size : 651 MiB
Duration : 48mn 43s
Overall bit rate : 1 869 Kbps
Writing application : VirtualDubMod 1.5.10.2 (build 2540/release)
Writing library : VirtualDubMod build 2540/release

Video
ID : 0
Format : MPEG-4 Visual
Format profile : Advanced Simple@L5
Format settings, BVOP : 2
Format settings, QPel : No
Format settings, GMC : No warppoints
Format settings, Matrix : Default (MPEG)
Muxing mode : Packed bitstream
Codec ID : XVID
Codec ID/Hint : XviD
Duration : 48mn 43s
Bit rate : 1 635 Kbps
Width : 640 pixels
Height : 480 pixels
Display aspect ratio : 4:3
Frame rate : 25.000 fps
Color space : YUV
Chroma subsampling : 4:2:0
Bit depth : 8 bits
Scan type : Progressive
Compression mode : Lossy
Bits/(Pixel*Frame) : 0.213
Stream size : 570 MiB (87%)
Writing library : XviD 64

Audio
ID : 1
Format : AC-3
Format/Info : Audio Coding 3
Mode extension : CM (complete main)
Format settings, Endianness : Big
Codec ID : 2000
Duration : 48mn 43s
Bit rate mode : Constant
Bit rate : 224 Kbps
Channel count : 2 channels
Channel positions : Front: L R
Sampling rate : 48.0 KHz
Bit depth : 16 bits
Compression mode : Lossy
Stream size : 78.1 MiB (12%)
Alignment : Split accross interleaves
Interleave, duration : 40 ms (1.00 video frame)
Interleave, preload duration : 500 ms


http://multi-up.com/961841


Релиз от: Pshichko66



   Похожие торренты   Торрент   Размер 
В этой теме нет новых непрочитанных сообщений. 13 женщин для Казановы / Казанова и компания / 13 femmes pour Casanova / Casanova & Co. (1977) DVDRip

377 | 120

1.35 ГБ

В этой теме нет новых непрочитанных сообщений. 13 женщин для Казановы / Казанова и компания / 13 femmes pour Casanova / Casanova & Co. (1977) DVDRip от KinoRay & Sheikn | A

617 | 29

1.45 ГБ

В этой теме нет новых непрочитанных сообщений. Пятое измерение. Призраки (2003) SATRip от Pshichko66

32 | 7

651.34 МБ

В этой теме нет новых непрочитанных сообщений. Белая королева и ее соперницы / The Real White Queen and Her Rivals [01-02] (2013) IPTVRip от Pshichko66

101 | 6

1.56 ГБ

В этой теме нет новых непрочитанных сообщений. Предательство в Сантьяго. Смерть Сальвадора Альенде / Betrayal in Santiago. Who shot Salvador Allende? (2003) SATRip от Pshichko66

53 | 20

651.63 МБ

В этой теме нет новых непрочитанных сообщений. GTA / Grand Theft Auto: Vice City - Real Mod 2014 (2003) PC

3821 | 214

2.92 ГБ

В этой теме нет новых непрочитанных сообщений. Жизнь за джинсы (2003) IPTVRip от Pshichko66

53 | 7

699.79 МБ




Вы не можете начинать темы
Вы не можете отвечать на сообщения
Вы не можете редактировать свои сообщения
Вы не можете удалять свои сообщения
Вы не можете добавлять вложения

Перейти:  
Для Мосгорсуда, Роскомнадзора и рекламодателей: mosgorsud-torrent[собачка]yandex.ru
 Вход
ppkBB3cker v.2 © 2008-2014 @ PPK
[ Time : 0.036s | 18 Queries | GZIP : Off ]

Торрент трекер RUTOR.IN, Не можете зайти на rutor.org? Какой новый адрес рутор? Какое зеркало рутор? Не работает rutor.org и зеркала? Тогда наш торрент специально для вас. Rutor.in неофициальное зеркало rutor. В случае если у Вас заблокирован rutor или вдруг Вы не можете на него зайти, то Вы без труда сможете скачать бесплатно и без рекламы последние новинки кино, игр, сериалов и прочего у нас, на Rutor.in. Не нужно использовать прокси, чтобы зайти на рутор, достаточно воспользоваться нашим ресурсом. Все новые фильмы, игры, сериалы, книги и музыка за 2013 и 2014 годы через торрент бесплатно. Скачивайте фильмы в хорошем качестве, игры для пк, xbox, playstation без регистрации. У нас вы найдете новые Зарубежные сериалы и Русские сериалы 2013, 2014, 2015 годов. Оставайтесь с нами, качайте любимые фильмы, игры, сериалы, книги и музыку.