img image001 image001 image001 image001 image001 image001 image001 image001 image001 image001 image001 image001 image001 image001 image001

Planets Sun Sun Sun
Статистика раздачи
Автор: Nickolas3434 | Размер: 701.62 МБ | Добавлен: 26 мар 2014
Раздают: 283    Качают: 59
Скачать торрент
Скачать торрент
Описание торрента

СообщениеДобавлено: 26 мар 2014 

Информация о фильме
Название: BBC: Шкала времени. Через Ад во имя Гитлера
Оригинальное название: BBC:Time watch. Through Heel for Hitler
Год выхода: 2003
Жанр: Документальный, биография, военный
Режиссер: Джонатан Хакер
В ролях: Ben Silverstone, Piotr Adamczyk, John Eddmondson, Adam Malecki, Maria Мamona

О фильме:
Рассказ - исповедь солдата-танкиста гитлеровской Германии, о его детстве, юности, военной молодости. Как выглядела Вторая Мировая Война глазами немецкого солдата? Старый человек вспоминает о том, как он воевал в России, через какие тяготы и лишения прошел он и его товарищи, какие преступления совершил. Прошлое тяготит его. Но вот вопрос: достоин ли он сочувствия?
Официальный сайт

Страна: Великобритания
Студия: ВВС, Viasat History
Продолжительность: 00:49:00
Перевод: Одноголосый (Профессиональный)

Файл
Кодек: XviD
Качество: SATRip
Видео: 640х480, 1768 Kbps, 25.000 fps
Звук: AC3 2.0, 224 Kbps
Субтитры: Языки и типы субтитров

Семпл



General
Complete name : L:Pshichko66Na zapis'Cherez Ad vo imya Gitlera.avi
Format : AVI
Format/Info : Audio Video Interleave
File size : 702 MiB
Duration : 49mn 0s
Overall bit rate : 2 001 Kbps
Writing application : VirtualDubMod 1.5.10.2 (build 2540/release)
Writing library : VirtualDubMod build 2540/release

Video
ID : 0
Format : MPEG-4 Visual
Format profile : Advanced Simple@L5
Format settings, BVOP : 2
Format settings, QPel : No
Format settings, GMC : No warppoints
Format settings, Matrix : Default (MPEG)
Muxing mode : Packed bitstream
Codec ID : XVID
Codec ID/Hint : XviD
Duration : 49mn 0s
Bit rate : 1 768 Kbps
Width : 640 pixels
Height : 480 pixels
Display aspect ratio : 4:3
Frame rate : 25.000 fps
Color space : YUV
Chroma subsampling : 4:2:0
Bit depth : 8 bits
Scan type : Progressive
Compression mode : Lossy
Bits/(Pixel*Frame) : 0.230
Stream size : 620 MiB (88%)
Writing library : XviD 64

Audio
ID : 1
Format : AC-3
Format/Info : Audio Coding 3
Mode extension : CM (complete main)
Format settings, Endianness : Big
Codec ID : 2000
Duration : 49mn 0s
Bit rate mode : Constant
Bit rate : 224 Kbps
Channel count : 2 channels
Channel positions : Front: L R
Sampling rate : 48.0 KHz
Bit depth : 16 bits
Compression mode : Lossy
Stream size : 78.5 MiB (11%)
Alignment : Split accross interleaves
Interleave, duration : 40 ms (1.00 video frame)
Interleave, preload duration : 500 ms


http://multi-up.com/961941


Релиз от: Pshichko66

Время раздачи: с 08 до 24 часов. До первых 10 скачавших.



   Похожие торренты   Торрент   Размер 
В этой теме нет новых непрочитанных сообщений. Шкала времени / BBC: Time Watch [21-25 из 35] (2001-2008) TVRip-SATRip-DVDRip

16 | 8

2.22 ГБ

В этой теме нет новых непрочитанных сообщений. Шкала времени / BBC: Time Watch [16-20 из 35] (2001-2008) TVRip-SATRip-DVDRip

0 | 257

2.61 ГБ

В этой теме нет новых непрочитанных сообщений. Шкала времени / BBC: Time Watch [26-30 из 35] (2001-2008) TVRip-SATRip-DVDRip

12 | 2

2.41 ГБ

В этой теме нет новых непрочитанных сообщений. Шкала времени / BBC: Time Watch [11-15 из 35] (2001-2008) TVRip-SATRip-DVDRip

0 | 29

2.57 ГБ

В этой теме нет новых непрочитанных сообщений. Шкала времени / BBC: Time Watch [1-5 из 35] (2001-2008) TVRip-SATRip-DVDRip

16 | 7

2.7 ГБ

В этой теме нет новых непрочитанных сообщений. Шкала времени / BBC: Time Watch [31-35 из 35] (2001-2008) TVRip-SATRip-DVDRip

16 | 5

2.24 ГБ

В этой теме нет новых непрочитанных сообщений. Шкала времени / BBC: Time Watch [6-10 из 35] (2001-2008) TVRip-SATRip-DVDRip

15 | 5

2.19 ГБ




Вы не можете начинать темы
Вы не можете отвечать на сообщения
Вы не можете редактировать свои сообщения
Вы не можете удалять свои сообщения
Вы не можете добавлять вложения

Перейти:  
Для Мосгорсуда, Роскомнадзора и рекламодателей: mosgorsud-torrent[собачка]yandex.ru
 Вход
ppkBB3cker v.2 © 2008-2014 @ PPK
[ Time : 0.543s | 15 Queries | GZIP : Off ]

Торрент трекер RUTOR.IN, Не можете зайти на rutor.org? Какой новый адрес рутор? Какое зеркало рутор? Не работает rutor.org и зеркала? Тогда наш торрент специально для вас. Rutor.in неофициальное зеркало rutor. В случае если у Вас заблокирован rutor или вдруг Вы не можете на него зайти, то Вы без труда сможете скачать бесплатно и без рекламы последние новинки кино, игр, сериалов и прочего у нас, на Rutor.in. Не нужно использовать прокси, чтобы зайти на рутор, достаточно воспользоваться нашим ресурсом. Все новые фильмы, игры, сериалы, книги и музыка за 2013 и 2014 годы через торрент бесплатно. Скачивайте фильмы в хорошем качестве, игры для пк, xbox, playstation без регистрации. У нас вы найдете новые Зарубежные сериалы и Русские сериалы 2013, 2014, 2015 годов. Оставайтесь с нами, качайте любимые фильмы, игры, сериалы, книги и музыку.