img image001 image001 image001 image001 image001 image001 image001 image001 image001 image001 image001 image001 image001 image001 image001 image001

Planets Sun Sun Sun
Статистика раздачи
Автор: Nickolas3434 | Размер: 701.62 МБ | Добавлен: 26 мар 2014
Раздают: 283    Качают: 59
Скачать торрент
Скачать торрент
Описание торрента

СообщениеДобавлено: 26 мар 2014 

Информация о фильме
Название: BBC: Шкала времени. Через Ад во имя Гитлера
Оригинальное название: BBC:Time watch. Through Heel for Hitler
Год выхода: 2003
Жанр: Документальный, биография, военный
Режиссер: Джонатан Хакер
В ролях: Ben Silverstone, Piotr Adamczyk, John Eddmondson, Adam Malecki, Maria Мamona

О фильме:
Рассказ - исповедь солдата-танкиста гитлеровской Германии, о его детстве, юности, военной молодости. Как выглядела Вторая Мировая Война глазами немецкого солдата? Старый человек вспоминает о том, как он воевал в России, через какие тяготы и лишения прошел он и его товарищи, какие преступления совершил. Прошлое тяготит его. Но вот вопрос: достоин ли он сочувствия?
Официальный сайт

Страна: Великобритания
Студия: ВВС, Viasat History
Продолжительность: 00:49:00
Перевод: Одноголосый (Профессиональный)

Файл
Кодек: XviD
Качество: SATRip
Видео: 640х480, 1768 Kbps, 25.000 fps
Звук: AC3 2.0, 224 Kbps
Субтитры: Языки и типы субтитров

Семпл



General
Complete name : L:Pshichko66Na zapis'Cherez Ad vo imya Gitlera.avi
Format : AVI
Format/Info : Audio Video Interleave
File size : 702 MiB
Duration : 49mn 0s
Overall bit rate : 2 001 Kbps
Writing application : VirtualDubMod 1.5.10.2 (build 2540/release)
Writing library : VirtualDubMod build 2540/release

Video
ID : 0
Format : MPEG-4 Visual
Format profile : Advanced Simple@L5
Format settings, BVOP : 2
Format settings, QPel : No
Format settings, GMC : No warppoints
Format settings, Matrix : Default (MPEG)
Muxing mode : Packed bitstream
Codec ID : XVID
Codec ID/Hint : XviD
Duration : 49mn 0s
Bit rate : 1 768 Kbps
Width : 640 pixels
Height : 480 pixels
Display aspect ratio : 4:3
Frame rate : 25.000 fps
Color space : YUV
Chroma subsampling : 4:2:0
Bit depth : 8 bits
Scan type : Progressive
Compression mode : Lossy
Bits/(Pixel*Frame) : 0.230
Stream size : 620 MiB (88%)
Writing library : XviD 64

Audio
ID : 1
Format : AC-3
Format/Info : Audio Coding 3
Mode extension : CM (complete main)
Format settings, Endianness : Big
Codec ID : 2000
Duration : 49mn 0s
Bit rate mode : Constant
Bit rate : 224 Kbps
Channel count : 2 channels
Channel positions : Front: L R
Sampling rate : 48.0 KHz
Bit depth : 16 bits
Compression mode : Lossy
Stream size : 78.5 MiB (11%)
Alignment : Split accross interleaves
Interleave, duration : 40 ms (1.00 video frame)
Interleave, preload duration : 500 ms


http://multi-up.com/961941


Релиз от: Pshichko66

Время раздачи: с 08 до 24 часов. До первых 10 скачавших.



   Похожие торренты   Торрент   Размер 
В этой теме нет новых непрочитанных сообщений. BBC: Убить Гитлера / BBC: Killing Hitler (2003) DVDRip от Pshichko66

242 | 75

1.37 ГБ

В этой теме нет новых непрочитанных сообщений. Семья Гитлера. В тени диктатора / Hitler's Family. In the shadow of the dictator (2005) SATRip

153 | 43

701.2 МБ

В этой теме нет новых непрочитанных сообщений. Люди Гитлера / Hitler's People [01 из 02] (2015) HDTVRip от Kaztorrents | P1

110 | 39

672.27 МБ

В этой теме нет новых непрочитанных сообщений. Люди Гитлера / Hitler's People [01 из 02] (2015) HDTVRip от Kaztorrents | P1

710 | 96

1.31 ГБ

В этой теме нет новых непрочитанных сообщений. Восточная Пруссия Гитлера / Hitler's East Prussia [01-02 из 02] HDTVRip от Generalfilm

0 | 0

1.09 ГБ

В этой теме нет новых непрочитанных сообщений. Люди Гитлера / Hitler's People [01-02 серии из 02] (2015) HDTVRip-AVC от KinoHitHD | P

54 | 1

1.35 ГБ

В этой теме нет новых непрочитанных сообщений. Доисторические монстры Гитлера / Hitler's Jurassic Monsters (2014) HDTVRip от -=HD-NET=-

243 | 73

600.97 МБ




Вы не можете начинать темы
Вы не можете отвечать на сообщения
Вы не можете редактировать свои сообщения
Вы не можете удалять свои сообщения
Вы не можете добавлять вложения

Перейти:  
 Вход
ppkBB3cker v.2 © 2008-2014 @ PPK
[ Time : 0.038s | 18 Queries | GZIP : Off ]

cron