img image001 image001 image001 image001 image001 image001 image001 image001 image001 image001 image001 image001 image001 image001 image001

Planets Sun Sun Sun
Статистика раздачи
Автор: Nickolas3434 | Размер: 702.51 МБ | Добавлен: 26 мар 2014
Раздают: 14    Качают: 14
Скачать торрент
Скачать торрент
Описание торрента

СообщениеДобавлено: 26 мар 2014 

Информация о фильме
Название: Убийца с зонтиком
Оригинальное название: The Umbrella Assassin
Год выхода: 2006
Жанр: Документальный, криминал, политика
Режиссер: Марк Радице
В ролях: Тоби Стивенс, Бернард Райли, Любен Марков, Руфус Кромптон, Робин Келли, Владимир Костов

О фильме:
Гео́ргий Иванов Ма́рков (болг. Георги Иванов Марков; 1 марта 1929 — 11 сентября 1978) — болгарский диссидент, писатель и журналист, убитый в Лондоне. Считается, что был убит агентом болгарского Комитета государственной безопасности, хотя убийцу так и не нашли.7 сентября 1978 года, выйдя с работы, Георгий Марков шёл к своему автомобилю, припаркованному на некотором отдалении. Проходя через толпу людей на автобусной остановке, он споткнулся о чей-то зонтик, и почувствовал укол. Человек с зонтиком извинился и уехал.

На следующий день Маркова стали мучить приступы тошноты, и резко поднялась температура, он был доставлен в больницу. Однако состояние его всё ухудшалось и через некоторое время он скончался. Перед смертью он успел рассказать об эпизоде с зонтиком.


Страна: Великобритания
Студия: Windfall Films
Продолжительность: 00:47:17
Перевод: Одноголосый закадровый, профессиональный

Файл
Кодек: Xvid
Качество: SATRip
Видео: 696х424, 1843 Kbps, 25.000 fps
Звук: AC3 2.0, 224 Kbps
Субтитры: Языки и типы субтитров

Семпл

General
Complete name : L:Pshichko66Na zapis'Ubiytsa s zontikom.avi
Format : AVI
Format/Info : Audio Video Interleave
File size : 703 MiB
Duration : 47mn 17s
Overall bit rate : 2 077 Kbps
Writing application : VirtualDubMod 1.5.10.2 (build 2540/release)
Writing library : VirtualDubMod build 2540/release

Video
ID : 0
Format : MPEG-4 Visual
Format profile : Advanced Simple@L5
Format settings, BVOP : 2
Format settings, QPel : No
Format settings, GMC : No warppoints
Format settings, Matrix : Default (MPEG)
Muxing mode : Packed bitstream
Codec ID : XVID
Codec ID/Hint : XviD
Duration : 47mn 17s
Bit rate : 1 843 Kbps
Width : 696 pixels
Height : 424 pixels
Display aspect ratio : 16:10
Frame rate : 25.000 fps
Color space : YUV
Chroma subsampling : 4:2:0
Bit depth : 8 bits
Scan type : Progressive
Compression mode : Lossy
Bits/(Pixel*Frame) : 0.250
Stream size : 623 MiB (89%)
Writing library : XviD 64

Audio
ID : 1
Format : AC-3
Format/Info : Audio Coding 3
Mode extension : CM (complete main)
Format settings, Endianness : Big
Codec ID : 2000
Duration : 47mn 17s
Bit rate mode : Constant
Bit rate : 224 Kbps
Channel count : 2 channels
Channel positions : Front: L R
Sampling rate : 48.0 KHz
Bit depth : 16 bits
Compression mode : Lossy
Stream size : 75.8 MiB (11%)
Alignment : Split accross interleaves
Interleave, duration : 40 ms (1.00 video frame)
Interleave, preload duration : 500 ms

Релиз от: Pshichko66



   Похожие торренты   Торрент   Размер 
В этой теме нет новых непрочитанных сообщений. Укол зонтиком / The Umbrella Coup / Le coup du parapluie (1980) BDRip от HQCLUB

474 | 15

1.45 ГБ

В этой теме нет новых непрочитанных сообщений. Укол зонтиком / Umbrella Coup / Le coup du parapluie (1980) WEB-DLRip | P, D

10 | 4

1.45 ГБ

В этой теме нет новых непрочитанных сообщений. Я, Франсуа Вийон, вор, убийца, поэт / Je, François Villon, voleur, assassin, poète (2010) SATRip

4 | 4

1.46 ГБ

В этой теме нет новых непрочитанных сообщений. Umbrella Corps™/Biohazard Umbrella Corps™ (2016) PC | [RUS / ENG / MULTI12]

1 | 2

3.64 ГБ

В этой теме нет новых непрочитанных сообщений. Umbrella Corps / Biohazard Umbrella Corps (2016) PC | RePack

473 | 39

3.49 ГБ

В этой теме нет новых непрочитанных сообщений. Ниндзя-убийца / Ninja Assassin (2009) Blu-Ray

1 | 2

23.64 ГБ

В этой теме нет новых непрочитанных сообщений. Убийца / The Assassin / Nie yin niang (2015) HDRip | L2

608 | 34

2.05 ГБ




Вы не можете начинать темы
Вы не можете отвечать на сообщения
Вы не можете редактировать свои сообщения
Вы не можете удалять свои сообщения
Вы не можете добавлять вложения

Перейти:  
Для Мосгорсуда, Роскомнадзора и рекламодателей: mosgorsud-torrent[собачка]yandex.ru
 Вход
ppkBB3cker v.2 © 2008-2014 @ PPK
[ Time : 0.539s | 16 Queries | GZIP : Off ]

Торрент трекер RUTOR.IN, Не можете зайти на rutor.org? Какой новый адрес рутор? Какое зеркало рутор? Не работает rutor.org и зеркала? Тогда наш торрент специально для вас. Rutor.in неофициальное зеркало rutor. В случае если у Вас заблокирован rutor или вдруг Вы не можете на него зайти, то Вы без труда сможете скачать бесплатно и без рекламы последние новинки кино, игр, сериалов и прочего у нас, на Rutor.in. Не нужно использовать прокси, чтобы зайти на рутор, достаточно воспользоваться нашим ресурсом. Все новые фильмы, игры, сериалы, книги и музыка за 2013 и 2014 годы через торрент бесплатно. Скачивайте фильмы в хорошем качестве, игры для пк, xbox, playstation без регистрации. У нас вы найдете новые Зарубежные сериалы и Русские сериалы 2013, 2014, 2015 годов. Оставайтесь с нами, качайте любимые фильмы, игры, сериалы, книги и музыку.
cron