img image001 image001 image001 image001 image001 image001 image001 image001 image001 image001 image001 image001 image001 image001 image001

Planets Sun Sun Sun
Статистика раздачи
Автор: Nickolas3434 | Размер: 2.19 ГБ | Добавлен: 29 мар 2014
Раздают: 78    Качают: 34
Скачать торрент
Скачать торрент
Описание торрента

СообщениеДобавлено: 29 мар 2014 


Информация о фильме
Название: Discovery: Будущее с Джеймсом Вудсом. Пионеры галактики / Futurescape with James Woods. Galactic Pioneers
Год выпуска: 2014
Жанр: Документальный, научно-познавательный
Режиссер: Эмре Сахин
В ролях: Алекс Денни, Джеймс Вудс, Чарльз Кампос, Пол Блэк, Грэг Бэнэтт, Никки Уэллс, Мичио Каку


Описание:
Джеймс Вудс рассказывает зрителям о достижениях науки и последствиях, которые они могут иметь в будущем. Он задаст важные вопросы и покажет потрясающие картины нашего будущего.


Продолжительность: 00:44:01
Выпущено: США, Karga Seven Pictures
Перевод: Профессиональный одноголосый
Файл
Формат: MKV
Качество: HDTV 1080i
Видео: MPEG-4 AVC, ~6.589 kb/s, 1920x1080
Аудио: AC3, 384 Kbps, 5.1 ch, 48.0 KHz

Format : Matroska
Format version : Version 4 / Version 2
File size : 2.19 GiB
Duration : 44mn 1s
Overall bit rate : 7 114 Kbps
Encoded date : UTC 2014-03-28 18:27:07
Writing application : mkvmerge v6.6.0 ('The Edge Of The In Between') built on Dec 1 2013 17:55:00
Writing library : libebml v1.3.0 + libmatroska v1.4.1
Video
ID : 1
Format : AVC
Format/Info : Advanced Video Codec
Format profile : High@L4.0
Format settings, CABAC : Yes
Format settings, ReFrames : 3 frames
Codec ID : V_MPEG4/ISO/AVC
Duration : 44mn 1s
Bit rate : 6 589 Kbps
Width : 1 920 pixels
Height : 1 080 pixels
Display aspect ratio : 16:9
Frame rate mode : Constant
Frame rate : 25.000 fps
Standard : Component
Color space : YUV
Chroma subsampling : 4:2:0
Bit depth : 8 bits
Scan type : Interlaced
Scan order : Top Field First
Bits/(Pixel*Frame) : 0.127
Stream size : 2.03 GiB (93%)
Default : Yes
Forced : No
Color primaries : BT.709
Transfer characteristics : BT.709
Matrix coefficients : BT.709
Audio
ID : 2
Format : AC-3
Format/Info : Audio Coding 3
Mode extension : CM (complete main)
Format settings, Endianness : Big
Codec ID : A_AC3
Duration : 44mn 1s
Bit rate mode : Constant
Bit rate : 384 Kbps
Channel count : 6 channels
Channel positions : Front: L C R, Side: L R, LFE
Sampling rate : 48.0 KHz
Bit depth : 16 bits
Compression mode : Lossy
Delay relative to video : 105ms
Stream size : 121 MiB (5%)
Language : Russian
Default : Yes
Forced : No







   Похожие торренты   Торрент   Размер 
В этой теме нет новых непрочитанных сообщений. Discovery: Будущее с Джеймсом Вудсом. Замена Богу / Futurescape with James Woods. Replacing God (2014) HDTV 1080i | P1

57 | 65

2.17 ГБ

В этой теме нет новых непрочитанных сообщений. Discovery: Будущее с Джеймсом Вудсом / Futurescape with James Woods [01x01-03 из 6] (2013) HDTVRip | R. G. BitTracker

78 | 29

1.84 ГБ

В этой теме нет новых непрочитанных сообщений. Discovery: Будущее с Джеймсом Вудсом / Futurescape with James Woods [01x01-02 из 6] (2013) HDTVRip | R. G. BitTracker

62 | 17

1.23 ГБ

В этой теме нет новых непрочитанных сообщений. Discovery: Будущее с Джеймсом Вудсом / Futurescape with James Woods [01x01-05 из 06] (2013) HDTVRip | R. G. BitTracker

79 | 94

3.06 ГБ

В этой теме нет новых непрочитанных сообщений. Discovery: Будущее с Джеймсом Вудсом / Futurescape with James Woods [01x01-04 из 6] (2013) HDTVRip | R. G. BitTracker

49 | 18

2.46 ГБ

В этой теме нет новых непрочитанных сообщений. Discovery: Будущее с Джеймсом Вудсом / Futurescape with James Woods [01x01-04 из 06] (2013) HDTVRip 720p | R. G. BitTracker

14 | 21

7.25 ГБ

В этой теме нет новых непрочитанных сообщений. Discovery: Будущее с Джеймсом Вудсом / Futurescape with James Woods [01x01-05 из 06] (2013) HDTVRip 720p | R. G. BitTracker

23 | 12

9.01 ГБ




Вы не можете начинать темы
Вы не можете отвечать на сообщения
Вы не можете редактировать свои сообщения
Вы не можете удалять свои сообщения
Вы не можете добавлять вложения

Перейти:  
Для Мосгорсуда, Роскомнадзора и рекламодателей: mosgorsud-torrent[собачка]yandex.ru
 Вход
ppkBB3cker v.2 © 2008-2014 @ PPK
[ Time : 0.028s | 15 Queries | GZIP : Off ]

Торрент трекер RUTOR.IN, Не можете зайти на rutor.org? Какой новый адрес рутор? Какое зеркало рутор? Не работает rutor.org и зеркала? Тогда наш торрент специально для вас. Rutor.in неофициальное зеркало rutor. В случае если у Вас заблокирован rutor или вдруг Вы не можете на него зайти, то Вы без труда сможете скачать бесплатно и без рекламы последние новинки кино, игр, сериалов и прочего у нас, на Rutor.in. Не нужно использовать прокси, чтобы зайти на рутор, достаточно воспользоваться нашим ресурсом. Все новые фильмы, игры, сериалы, книги и музыка за 2013 и 2014 годы через торрент бесплатно. Скачивайте фильмы в хорошем качестве, игры для пк, xbox, playstation без регистрации. У нас вы найдете новые Зарубежные сериалы и Русские сериалы 2013, 2014, 2015 годов. Оставайтесь с нами, качайте любимые фильмы, игры, сериалы, книги и музыку.