img image001 image001 image001 image001 image001 image001 image001 image001 image001 image001 image001 image001 image001 image001 image001

Planets Sun Sun Sun
Статистика раздачи
Автор: Nickolas3434 | Размер: 651.18 МБ | Добавлен: 30 мар 2014
Раздают: 193    Качают: 64
Скачать торрент
Скачать торрент
Описание торрента

СообщениеДобавлено: 30 мар 2014 

Информация о фильме
Название: Кто "заказал" Котовского?
Оригинальное название: Оригинальное название (для иностранных фильмов)
Год выхода: 2004
Жанр: Документальный, история, биография
Режиссер: И.Григорьев
Участники Публицисты, историки, родственники, участники событий

О фильме:
Авторы документального фильма-расследования поставили цель - выяснить истинные причины убийства легендарного героя Гражданской войны, кавалера трех орденов Красного Знамени Григория Котовского. Многие годы известные историки и потомки красного генерала пытаются понять: кому была выгодна смерть Котовского, которая всегда преподносилась исключительно как следствие бытового конфликта? Григорий был убит в 1925 году, якобы, на дружеской вечеринке. Его застрелил не просто соратник, а человек многим ему обязанный.
Возможно, истоки трагедии надо искать в криминальном прошлом самого Котовского. С другой стороны, убийцу могли подтолкнуть к этому шагу те, кто был прямо заинтересован в устранении из политической жизни популярного, но абсолютно неуправляемого героя Гражданской войны.
В фильме используются эксклюзивные материалы: зритель впервые сможет увидеть лицо убийцы Котовского и документы той эпохи, а также сохранившиеся до сегодняшнего дня здания Одессы, где и проходила бурная жизнь этого легендарного человека.

Официальный сайт

Страна: Россия
Студия: Студия Вертов и Ко
Продолжительность: 00:43:42
Перевод: Не требуется

Файл
Кодек: Xvid (FourCC заменен на DivX)
Качество: TVRip
Видео: 704х424, 1881 Kbps, 25.000 fps
Звук: AC3 2.0, 192 Kbps
Субтитры: русские вшитые, неотключаемые

Семпл



General
Complete name : L:Pshichko66Na zapis'Kto zakazal Kotovskogo.avi
Format : AVI
Format/Info : Audio Video Interleave
File size : 651 MiB
Duration : 43mn 42s
Overall bit rate : 2 083 Kbps
Writing application : VirtualDubMod 1.5.10.2 (build 2540/release)
Writing library : VirtualDubMod build 2540/release

Video
ID : 0
Format : MPEG-4 Visual
Format profile : Advanced Simple@L5
Format settings, BVOP : 1
Format settings, QPel : No
Format settings, GMC : No warppoints
Format settings, Matrix : Default (MPEG)
Codec ID : DIVX
Codec ID/Info : Project Mayo
Codec ID/Hint : DivX 4
Duration : 43mn 42s
Bit rate : 1 881 Kbps
Width : 704 pixels
Height : 424 pixels
Display aspect ratio : 1.660
Frame rate : 25.000 fps
Color space : YUV
Chroma subsampling : 4:2:0
Bit depth : 8 bits
Scan type : Progressive
Compression mode : Lossy
Bits/(Pixel*Frame) : 0.252
Stream size : 588 MiB (90%)
Writing library : XviD 64

Audio
ID : 1
Format : AC-3
Format/Info : Audio Coding 3
Mode extension : CM (complete main)
Format settings, Endianness : Big
Codec ID : 2000
Duration : 43mn 42s
Bit rate mode : Constant
Bit rate : 192 Kbps
Channel count : 2 channels
Channel positions : Front: L R
Sampling rate : 48.0 KHz
Bit depth : 16 bits
Compression mode : Lossy
Stream size : 60.0 MiB (9%)
Alignment : Split accross interleaves
Interleave, duration : 40 ms (1.00 video frame)
Interleave, preload duration : 500 ms

Релиз от: Pshichko66



   Похожие торренты   Торрент   Размер 
В этой теме нет новых непрочитанных сообщений. Солдаты [S02] (2004) TVRip

305 | 26

5.03 ГБ

В этой теме нет новых непрочитанных сообщений. Ярго / Jargo (2004) TVRip | L1

0 | 0

647.77 МБ

В этой теме нет новых непрочитанных сообщений. Белая гвардия (2004) TVRip

65 | 6

2.16 ГБ

В этой теме нет новых непрочитанных сообщений. Призраки / Spooks / MI-5 [S03] (2004) TVRip

2 | 5

5.28 ГБ

В этой теме нет новых непрочитанных сообщений. Исцеление любовью [01-190 из 190] (2004) TVRip

1 | 7

68.9 ГБ

В этой теме нет новых непрочитанных сообщений. Джек-пот для Золушки [1-10 из 10] (2004) TVRip

12 | 14

3.26 ГБ

В этой теме нет новых непрочитанных сообщений. Потерпевшие победу (2004) TVRip

0 | 2

453.08 МБ




Вы не можете начинать темы
Вы не можете отвечать на сообщения
Вы не можете редактировать свои сообщения
Вы не можете удалять свои сообщения
Вы не можете добавлять вложения

Перейти:  
Для Мосгорсуда, Роскомнадзора и рекламодателей: mosgorsud-torrent[собачка]yandex.ru
 Вход
ppkBB3cker v.2 © 2008-2014 @ PPK
[ Time : 0.032s | 16 Queries | GZIP : Off ]

cron