img image001 image001 image001 image001 image001 image001 image001 image001 image001 image001 image001 image001 image001 image001 image001

Planets Sun Sun Sun
Статистика раздачи
Автор: Nickolas3434 | Размер: 7.25 ГБ | Добавлен: 31 мар 2014
Раздают: 14    Качают: 21
Скачать торрент
Скачать торрент
Описание торрента

СообщениеДобавлено: 31 мар 2014 


Информация о фильме
Название: Discovery: Будущее с Джеймсом Вудсом / Futurescape with James Woods
Год выпуска: 2013
Жанр: Документальный, научно-познавательный
Режиссер: Эмре Сахин
В ролях: Алекс Денни, Джеймс Вудс, Чарльз Кампос, Пол Блэк, Грэг Бэнэтт, Никки Уэллс, Мичио Каку


Описание:
Актёр Джеймс Вудс изучает последние технологические прорывы и их возможные последствия для будущего человечества. Каждая передача посвящена одной потрясающей идее или открытию, способному кардинально изменить привычную нам жизнь. Что происходит в ключевых областях науки? Чем это обернется для нас? Джеймс задаст важные вопросы, начнет дискуссию и при помощи уникальных технологий съемки и компьютерного моделирования покажет потрясающие картины нашего будущего.


01. Я знаю, что вы думаете / I Know What You're Thinking
02. Революция роботов / Robot Revolution
03. Время обмана / Cheating Time
04. Замена Богу / Replacing God
05. ...
06. ...

Релиз группа: R. G. BitTracker
Автор Rip'а: skorpionN
Документальный дубляж:
Голос рассказчика - полный дубляж
Интервью - слышна оригинальная речь


Продолжительность: 04 x ~ 00:43:42
Выпущено: США, Karga Seven Pictures
Перевод: Дублированный
Файл
Формат: MKV
Качество: HDTVRip 720p
Видео: MPEG-4 AVC, ~ 5615 Кбит/с, 1280x720
Аудио: AC3, 2 ch, 192 Кбит/с

General
Unique ID : 229726135306519888630115017091472971778 (0xACD3A4F0D02ED6EBA24EB0AC12705802)
Complete name : D:BittracerFuturescape_720p_[bittracker]�3_Cheating Time.mkv
Format : Matroska
File size : 1.81 GiB
Duration : 43mn 42s
Overall bit rate : 5 925 Kbps
Encoded date : UTC 2014-03-15 10:22:58
Writing application : mkvmerge v6.8.0 ('Theme for Great Cities') 64bit built on Mar 2 2014 21:34:26
Writing library : libebml v1.3.0 + libmatroska v1.4.1
Video #1
ID : 1
Format : AVC
Format/Info : Advanced Video Codec
Format profile : High@L3.1
Format settings, CABAC : Yes
Format settings, ReFrames : 3 frames
Codec ID : V_MPEG4/ISO/AVC
Duration : 43mn 42s
Bit rate mode : Constant
Bit rate : 5 615 Kbps
Nominal bit rate : 6 000 Kbps / 6 000 Kbps
Width : 1 280 pixels
Height : 720 pixels
Display aspect ratio : 16:9
Frame rate : 25.000 fps
Standard : NTSC
Color space : YUV
Chroma subsampling : 4:2:0
Bit depth : 8 bits
Scan type : Progressive
Bits/(Pixel*Frame) : 0.244
Stream size : 1.71 GiB (95%)
Writing library : x264 core 114
Encoding settings : cabac=1 / ref=3 / deblock=1:0:0 / analyse=0x3:0x113 / me=hex / subme=7 / psy=1 / psy_rd=1.00:0.00 / mixed_ref=1 / me_range=16 / chroma_me=1 / trellis=1 / 8x8dct=1 / cqm=2 / deadzone=21,11 / fast_pskip=1 / chroma_qp_offset=-2 / threads=6 / sliced_threads=0 / slices=1 / nr=0 / decimate=1 / interlaced=0 / constrained_intra=0 / bframes=3 / b_pyramid=0 / b_adapt=1 / b_bias=0 / direct=1 / weightb=1 / open_gop=0 / weightp=2 / keyint=250 / keyint_min=25 / scenecut=40 / intra_refresh=0 / rc_lookahead=40 / rc=cbr / mbtree=1 / bitrate=6000 / ratetol=1.0 / qcomp=0.60 / qpmin=3 / qpmax=69 / qpstep=4 / vbv_maxrate=6000 / vbv_bufsize=5996 / nal_hrd=cbr / ip_ratio=1.40 / aq=1:1.00
Color primaries : BT.709-5, BT.1361, IEC 61966-2-4, SMPTE RP177
Transfer characteristics : BT.709-5, BT.1361
Matrix coefficients : BT.709-5, BT.1361, IEC 61966-2-4 709, SMPTE RP177
Audio #2
ID : 2
Format : AC-3
Format/Info : Audio Coding 3
Mode extension : CM (complete main)
Codec ID : A_AC3
Duration : 43mn 42s
Bit rate mode : Constant
Bit rate : 192 Kbps
Channel(s) : 2 channels
Channel positions : Front: L R
Sampling rate : 48.0 KHz
Bit depth : 16 bits
Compression mode : Lossy
Stream size : 60.0 MiB (3%)






   Похожие торренты   Торрент   Размер 
В этой теме нет новых непрочитанных сообщений. Discovery: Будущее с Джеймсом Вудсом / Futurescape with James Woods [01x01-02 из 6] (2013) HDTVRip 720p | R. G. BitTracker

68 | 14

3.63 ГБ

В этой теме нет новых непрочитанных сообщений. Discovery: Будущее с Джеймсом Вудсом / Futurescape with James Woods [01x01-05 из 06] (2013) HDTVRip 720p | R. G. BitTracker

23 | 12

9.01 ГБ

В этой теме нет новых непрочитанных сообщений. Discovery: Будущее с Джеймсом Вудсом / Futurescape with James Woods [01x01-03 из 6] (2013) HDTVRip 720p | R. G. BitTracker

16 | 38

5.44 ГБ

В этой теме нет новых непрочитанных сообщений. Discovery: Будущее с Джеймсом Вудсом / Futurescape with James Woods [01x01-05 из 06] (2013) HDTVRip | R. G. BitTracker

79 | 94

3.06 ГБ

В этой теме нет новых непрочитанных сообщений. Discovery: Будущее с Джеймсом Вудсом / Futurescape with James Woods [01x01-02 из 6] (2013) HDTVRip | R. G. BitTracker

62 | 17

1.23 ГБ

В этой теме нет новых непрочитанных сообщений. Discovery: Будущее с Джеймсом Вудсом / Futurescape with James Woods [01x01-04 из 6] (2013) HDTVRip | R. G. BitTracker

49 | 18

2.46 ГБ

В этой теме нет новых непрочитанных сообщений. Discovery: Будущее с Джеймсом Вудсом / Futurescape with James Woods [01x01-03 из 6] (2013) HDTVRip | R. G. BitTracker

78 | 29

1.84 ГБ




Вы не можете начинать темы
Вы не можете отвечать на сообщения
Вы не можете редактировать свои сообщения
Вы не можете удалять свои сообщения
Вы не можете добавлять вложения

Перейти:  
Для Мосгорсуда, Роскомнадзора и рекламодателей: mosgorsud-torrent[собачка]yandex.ru
 Вход
ppkBB3cker v.2 © 2008-2014 @ PPK
[ Time : 0.058s | 14 Queries | GZIP : Off ]

Торрент трекер RUTOR.IN, Не можете зайти на rutor.org? Какой новый адрес рутор? Какое зеркало рутор? Не работает rutor.org и зеркала? Тогда наш торрент специально для вас. Rutor.in неофициальное зеркало rutor. В случае если у Вас заблокирован rutor или вдруг Вы не можете на него зайти, то Вы без труда сможете скачать бесплатно и без рекламы последние новинки кино, игр, сериалов и прочего у нас, на Rutor.in. Не нужно использовать прокси, чтобы зайти на рутор, достаточно воспользоваться нашим ресурсом. Все новые фильмы, игры, сериалы, книги и музыка за 2013 и 2014 годы через торрент бесплатно. Скачивайте фильмы в хорошем качестве, игры для пк, xbox, playstation без регистрации. У нас вы найдете новые Зарубежные сериалы и Русские сериалы 2013, 2014, 2015 годов. Оставайтесь с нами, качайте любимые фильмы, игры, сериалы, книги и музыку.