img image001 image001 image001 image001 image001 image001 image001 image001 image001 image001 image001 image001 image001 image001 image001

Planets Sun Sun Sun
Статистика раздачи
Автор: Nickolas3434 | Размер: 422.82 МБ | Добавлен: 01 апр 2014
Раздают: 70    Качают: 8
Скачать торрент
Скачать торрент
Описание торрента

СообщениеДобавлено: 01 апр 2014 


Информация о фильме
Название: Космос говорит по-русски
Год выпуска: 2007
Жанр: Документальный
Режиссер: Дмитрий Свергун


Описание:
12 апреля 1961 года земляне впервые услышали человеческую речь из космоса, и это был русский язык. С тех пор около ста наших соотечественников выходили в эфир с космических высот, четыре с половиной десятилетия звучит на орбите русская речь. Несмотря на то, что официальный язык общения на МКС - английский, русский как был, так и остается незаменимым. Сегодня все, кто участвует в международной космической программе, не только астронавты, но и те, кто работает на Земле, изучают русский язык. В фильме, посвященном Году русского языка, принимают участие известные космонавты, астронавты НАСА и Европейского космического агентства, преподаватели русского языка, долгое время работающие с астронавтами, переводчики. Включены забавные истории и казусы, связанные с поиском взаимопонимания между космонавтами и астронавтами.
* «Космос говорит по-русски» - документальный фильм о значимости русского языка в развитии космонавтики.


Продолжительность: 00:26:00
Выпущено: «Роскосмос»
Перевод: Не требуется
Язык: Русский
Файл
Формат: AVI
Качество: WEBRip
Видео: DivX, 720x400 (1.80:1), 23.976 fps, DivX Codec 4.x ~2132 kbps avg, 0.26 bit/pixel
Аудио: MP3, 44.100 kHz, MPEG Layer 3, 2 ch, ~128.00 kbps avg

General
Complete name : C:rusveraruskosmos.avi
Format : AVI
Format/Info : Audio Video Interleave
File size : 423 MiB
Duration : 26mn 0s
Overall bit rate : 2 273 Kbps
Writing application : Lavf52.32.0
Video
ID : 0
Format : MPEG-4 Visual
Format profile : Simple@L1
Format settings, BVOP : No
Format settings, QPel : No
Format settings, GMC : No warppoints
Format settings, Matrix : Default (H.263)
Codec ID : DIVX
Codec ID/Info : Project Mayo
Codec ID/Hint : DivX 4
Duration : 26mn 0s
Bit rate : 2 133 Kbps
Width : 720 pixels
Height : 400 pixels
Display aspect ratio : 4:3
Frame rate : 23.976 fps
Color space : YUV
Chroma subsampling : 4:2:0
Bit depth : 8 bits
Scan type : Progressive
Compression mode : Lossy
Bits/(Pixel*Frame) : 0.26
Stream size : 397 MiB (94%)
Writing library : Lavc52.22.3
Audio
ID : 1
Format : MPEG Audio
Format version : Version 1
Format profile : Layer 3
Mode : Joint stereo
Mode extension : MS Stereo
Codec ID : 55
Codec ID/Hint : MP3
Duration : 26mn 0s
Bit rate mode : Constant
Bit rate : 128 Kbps
Channel(s) : 2 channels
Sampling rate : 44.1 KHz
Compression mode : Lossy
Stream size : 23.8 MiB (6%)
Alignment : Aligned on interleaves
Interleave, duration : 26 ms (0.63 video frame)
Interleave, preload duration : 52 ms






   Похожие торренты   Торрент   Размер 
В этой теме нет новых непрочитанных сообщений. Ангара. В космос по-русски (2014) HDTVRip от Files-х

49 | 3

549.54 МБ

В этой теме нет новых непрочитанных сообщений. Ангара. В космос по-русски (2014) HDTVRip 720p

18 | 2

1.29 ГБ

В этой теме нет новых непрочитанных сообщений. Ангара. В космос по-русски (2014) HDTV 1080i от Files-х

27 | 2

2.79 ГБ

В этой теме нет новых непрочитанных сообщений. Секретный космос - Иллюминаты Захватывают Космос / Secret Space - Illuminati`s Conquest of Space (2007) DVDRip

40 | 17

917.65 МБ

В этой теме нет новых непрочитанных сообщений. "Ангара": В Космос По-Русски (2015) HDTVRip 720p

135 | 10

1.3 ГБ

В этой теме нет новых непрочитанных сообщений. Любовь говорит [01-04 из 04] (2014) WEBRip от GeneralFilm

35 | 2

1.46 ГБ

В этой теме нет новых непрочитанных сообщений. Говорит Украина: Миллионеры без штанов (2013) WEBRip

4 | 2

211.97 МБ




Вы не можете начинать темы
Вы не можете отвечать на сообщения
Вы не можете редактировать свои сообщения
Вы не можете удалять свои сообщения
Вы не можете добавлять вложения

Перейти:  
Для Мосгорсуда, Роскомнадзора и рекламодателей: mosgorsud-torrent[собачка]yandex.ru
 Вход
ppkBB3cker v.2 © 2008-2014 @ PPK
[ Time : 0.049s | 15 Queries | GZIP : Off ]

cron