img image001 image001 image001 image001 image001 image001 image001 image001 image001 image001 image001 image001 image001 image001 image001

Planets Sun Sun Sun
Статистика раздачи
Автор: Nickolas3434 | Размер: 650.93 МБ | Добавлен: 01 апр 2014
Раздают: 301    Качают: 45
Скачать торрент
Скачать торрент
Описание торрента

СообщениеДобавлено: 01 апр 2014 

Информация о фильме
Название: Александр Матросов. Правда о подвиге
Год выхода: 2009
Жанр: Документальный, биография
Режиссер: Алексей Смаглюк
Участники Публицисты, историки, односельчане

О фильме:
Документальный фильм "Александр Матросов. Правда о подвиге" посвящен Гвардии рядовому, Герою Советского Союза - Александру Матросову. Имя Александра Матросова (Шакирьяна Мухаметьянова) закрывшего своим телом амбразуру дзота противника 27 февраля 1943 года в бою за деревню Чернушкино, Псковской области, уже давно стало легендой. Но все ли известно об этом солдате, совершившем свой подвиг в 19 лет? Как, когда и где Шакирьян Мухаметьянова стал Александром Матросовым? Авторы фильма рассказывают о жизни Александра Матросова до войны, приводят неизвестные факты биографии героя. В фильме прозвучат комментарии историков и воспоминания односельчан.

Официальный сайт

Страна: Россия
Студия: Наше Кино
Продолжительность: 00:43:19
Перевод: Не требуется

Файл
Кодек: Xvid (FourCC заменен на DivX)
Качество: TVRip
Видео: 640х480, 1899 Kbps, 25.000 fps
Звук: AC3 2.0,
Субтитры: Языки и типы субтитров
General
Complete name : L:Pshichko66Na zapis'Podvig Aleksandra Matrosova.avi
Format : AVI
Format/Info : Audio Video Interleave
File size : 651 MiB
Duration : 43mn 19s
Overall bit rate : 2 101 Kbps
Writing application : VirtualDubMod 1.5.10.2 (build 2540/release)
Writing library : VirtualDubMod build 2540/release

Video
ID : 0
Format : MPEG-4 Visual
Format profile : Advanced Simple@L5
Format settings, BVOP : 1
Format settings, QPel : No
Format settings, GMC : No warppoints
Format settings, Matrix : Default (MPEG)
Codec ID : DIVX
Codec ID/Info : Project Mayo
Codec ID/Hint : DivX 4
Duration : 43mn 19s
Bit rate : 1 899 Kbps
Width : 640 pixels
Height : 480 pixels
Display aspect ratio : 4:3
Frame rate : 25.000 fps
Color space : YUV
Chroma subsampling : 4:2:0
Bit depth : 8 bits
Scan type : Progressive
Compression mode : Lossy
Bits/(Pixel*Frame) : 0.247
Stream size : 588 MiB (90%)
Writing library : XviD 64

Audio
ID : 1
Format : AC-3
Format/Info : Audio Coding 3
Mode extension : CM (complete main)
Format settings, Endianness : Big
Codec ID : 2000
Duration : 43mn 19s
Bit rate mode : Constant
Bit rate : 192 Kbps
Channel count : 2 channels
Channel positions : Front: L R
Sampling rate : 48.0 KHz
Bit depth : 16 bits
Compression mode : Lossy
Stream size : 59.5 MiB (9%)
Alignment : Split accross interleaves
Interleave, duration : 40 ms (1.00 video frame)
Interleave, preload duration : 500 ms


Семпл



Релиз от: Pshichko66



   Похожие торренты   Торрент   Размер 
В этой теме нет новых непрочитанных сообщений. Рядовой Александр Матросов (1947) DVDRip

75 | 8

1.37 ГБ

В этой теме нет новых непрочитанных сообщений. Наука о душе. Александр Гордон [Выпуски 01-39] (2009-2010) TVRip

0 | 7

7.82 ГБ

В этой теме нет новых непрочитанных сообщений. У матросов нет вопросов! (1980) DVDRip от SergV

35 | 8

1.37 ГБ

В этой теме нет новых непрочитанных сообщений. Воспоминания о подвиге (2003) SATRip от AND01AND

1 | 2

743.53 МБ

В этой теме нет новых непрочитанных сообщений. Николай Гастелло. Правда о подвиге (2007) IPTVRip от Pshichko66

165 | 5

699.04 МБ

В этой теме нет новых непрочитанных сообщений. Александр Попов (1949) TVRip

27 | 2

780.78 МБ

В этой теме нет новых непрочитанных сообщений. Александр Башлачев: Смертельный полёт (2005) TVRip

94 | 3

365.81 МБ




Вы не можете начинать темы
Вы не можете отвечать на сообщения
Вы не можете редактировать свои сообщения
Вы не можете удалять свои сообщения
Вы не можете добавлять вложения

Перейти:  
Для Мосгорсуда, Роскомнадзора и рекламодателей: mosgorsud-torrent[собачка]yandex.ru
 Вход
ppkBB3cker v.2 © 2008-2014 @ PPK
[ Time : 0.891s | 15 Queries | GZIP : Off ]

Торрент трекер RUTOR.IN, Не можете зайти на rutor.org? Какой новый адрес рутор? Какое зеркало рутор? Не работает rutor.org и зеркала? Тогда наш торрент специально для вас. Rutor.in неофициальное зеркало rutor. В случае если у Вас заблокирован rutor или вдруг Вы не можете на него зайти, то Вы без труда сможете скачать бесплатно и без рекламы последние новинки кино, игр, сериалов и прочего у нас, на Rutor.in. Не нужно использовать прокси, чтобы зайти на рутор, достаточно воспользоваться нашим ресурсом. Все новые фильмы, игры, сериалы, книги и музыка за 2013 и 2014 годы через торрент бесплатно. Скачивайте фильмы в хорошем качестве, игры для пк, xbox, playstation без регистрации. У нас вы найдете новые Зарубежные сериалы и Русские сериалы 2013, 2014, 2015 годов. Оставайтесь с нами, качайте любимые фильмы, игры, сериалы, книги и музыку.