img image001 image001 image001 image001 image001 image001 image001 image001 image001 image001 image001 image001 image001 image001 image001

Planets Sun Sun Sun
Статистика раздачи
Автор: Nickolas3434 | Размер: 651.38 МБ | Добавлен: 03 апр 2014
Раздают: 998    Качают: 121
Скачать торрент
Скачать торрент
Описание торрента

СообщениеДобавлено: 03 апр 2014 

Информация о фильме
Название: Каратели. Правда о латышских стрелках
Год выхода: 2007
Жанр: Документальный, история
Режиссер: Геннадий Быков
Участники: Писатели, историки, публицисты

О фильме:
Их было 80 тысяч человек. Средний возраст - 23 года.
Почему до сих пор, рассказывая о событиях 90-летней давности и революционной летописи, обязательно вспоминают латышских стрелков? Как получилось, что эти парни в революционное перепутье оказывались на самых ответственных перекрестках истории, и какой след они оставили?
Основой фильма являются исключительно архивные документы. Стали доступны новые материалы, которые проливают свет на давние события.
Авторы фильма попытались понять, как из воинов они превратились в наемников и почему именно им доверяли охранять вождей революции.
Также в этой документальной ленте будет подробно рассказано о мятеже 6 июля 1918 года, ведь этот день мог полностью изменить историю России.
Мало кому известно, что в гражданскую войну существовал и "зеленый фронт". В борьбе с бунтующим крестьянством латышские стрелки оказались незаменимыми.
Кем сегодня считают латышских стрелков, какие оценки им ставит история и в России, и в Латвии?..

Страна: Россия
Студия: Творческая мастерская студия - А
Продолжительность: 00:43:51
Перевод: Не требуется

Файл
Кодек: Xvid (FourCC заменен на DivX)
Качество: TVRip
Видео: 704х384, 1875 Kbps, 25.000 fps
Звук: AC3 2.0, 192 Kbps
Субтитры: Языки и типы субтитров

Семпл
General
Complete name : L:Pshichko66Na zapis'Karateli. Pravda o latyshah.avi
Format : AVI
Format/Info : Audio Video Interleave
File size : 651 MiB
Duration : 43mn 51s
Overall bit rate : 2 077 Kbps
Writing application : VirtualDubMod 1.5.10.2 (build 2540/release)
Writing library : VirtualDubMod build 2540/release

Video
ID : 0
Format : MPEG-4 Visual
Format profile : Advanced Simple@L5
Format settings, BVOP : 1
Format settings, QPel : No
Format settings, GMC : No warppoints
Format settings, Matrix : Default (MPEG)
Codec ID : DIVX
Codec ID/Info : Project Mayo
Codec ID/Hint : DivX 4
Duration : 43mn 51s
Bit rate : 1 875 Kbps
Width : 704 pixels
Height : 384 pixels
Display aspect ratio : 1.85:1
Frame rate : 25.000 fps
Color space : YUV
Chroma subsampling : 4:2:0
Bit depth : 8 bits
Scan type : Progressive
Compression mode : Lossy
Bits/(Pixel*Frame) : 0.277
Stream size : 588 MiB (90%)
Writing library : XviD 64

Audio
ID : 1
Format : AC-3
Format/Info : Audio Coding 3
Mode extension : CM (complete main)
Format settings, Endianness : Big
Codec ID : 2000
Duration : 43mn 51s
Bit rate mode : Constant
Bit rate : 192 Kbps
Channel count : 2 channels
Channel positions : Front: L R
Sampling rate : 48.0 KHz
Bit depth : 16 bits
Compression mode : Lossy
Stream size : 60.2 MiB (9%)
Alignment : Split accross interleaves
Interleave, duration : 40 ms (1.00 video frame)
Interleave, preload duration : 500 ms




Релиз от: Pshichko66



   Похожие торренты   Торрент   Размер 
В этой теме нет новых непрочитанных сообщений. Я; Ты / Myself; Yourself [13 из 13] (2007) TVRip

2 | 2

2.51 ГБ

В этой теме нет новых непрочитанных сообщений. От поплавка до донки (2007) TVRip-AVC

9 | 1

338.64 МБ

В этой теме нет новых непрочитанных сообщений. Былое и DOOMы [01-20] (2007) TVRip

0 | 3

1.88 ГБ

В этой теме нет новых непрочитанных сообщений. Моя мама - снегурочка (2007) TVRip

11 | 4

699.76 МБ

В этой теме нет новых непрочитанных сообщений. Тайны Апокалипсиса (2007) TVRip

20 | 5

4.76 ГБ

В этой теме нет новых непрочитанных сообщений. Клуб [04x01-18] (2007) TVRip

2 | 3

6.59 ГБ

В этой теме нет новых непрочитанных сообщений. Клуб [03x01-21] (2007) TVRip

3 | 2

7.42 ГБ




Вы не можете начинать темы
Вы не можете отвечать на сообщения
Вы не можете редактировать свои сообщения
Вы не можете удалять свои сообщения
Вы не можете добавлять вложения

Перейти:  
Для Мосгорсуда, Роскомнадзора и рекламодателей: mosgorsud-torrent[собачка]yandex.ru
 Вход
ppkBB3cker v.2 © 2008-2014 @ PPK
[ Time : 0.067s | 15 Queries | GZIP : Off ]
CGP output time : 0.027s | 5 Queries | GZIP : Off

Торрент трекер RUTOR.IN, Не можете зайти на rutor.org? Какой новый адрес рутор? Какое зеркало рутор? Не работает rutor.org и зеркала? Тогда наш торрент специально для вас. Rutor.in неофициальное зеркало rutor. В случае если у Вас заблокирован rutor или вдруг Вы не можете на него зайти, то Вы без труда сможете скачать бесплатно и без рекламы последние новинки кино, игр, сериалов и прочего у нас, на Rutor.in. Не нужно использовать прокси, чтобы зайти на рутор, достаточно воспользоваться нашим ресурсом. Все новые фильмы, игры, сериалы, книги и музыка за 2013 и 2014 годы через торрент бесплатно. Скачивайте фильмы в хорошем качестве, игры для пк, xbox, playstation без регистрации. У нас вы найдете новые Зарубежные сериалы и Русские сериалы 2013, 2014, 2015 годов. Оставайтесь с нами, качайте любимые фильмы, игры, сериалы, книги и музыку.