img image001 image001 image001 image001 image001 image001 image001 image001 image001 image001 image001 image001 image001 image001 image001

Planets Sun Sun Sun
Статистика раздачи
Автор: Nickolas3434 | Размер: 6.93 ГБ | Добавлен: 03 апр 2014
Раздают: 141    Качают: 72
Скачать торрент
Скачать торрент
Описание торрента

СообщениеДобавлено: 03 апр 2014 


Информация о фильме
Название: BBC: Греческие мифы / BBC: Greek Myths
Год выпуска: 2010
Жанр: Документальный, альтернативная история, псевдоистория
Режиссер: Эйриф Нурмохамед


Описание:
Греческой мифологией люди интересуются уже на протяжении 2 000 лет. В этом фильме мы имеем возможность наслаждаться историями Одиссея, Ясона и аргонавтов, пересказанных для современников с помощью актеров и компьютерной графики. Этот фильм не только рассказывают о самих мифах, он пытается заглянуть глубже, чтобы обнаружить новые интригующие для современников темы: Одиссей разрывается между славой великого воина и счастьем домашнего очага, в то время как путешествие Ясона отображает в символической форме битву полов и многое другое...



01. Tales of Travelling Heroes
02. True Stories


Продолжительность: 02 х ~ 00:49:00
Выпущено:
Перевод: Профессиональный одноголосый
Файл
Формат: MKV
Качество: HDTV 1080i
Видео: MPEG-4 AVC, ~ 7900 Кбит/с, 1920x1080
Аудио: Русский (AC3, 2 ch, 224 Кбит/с), английский (AC3, 6 ch, 448 Кбит/с)

Общее
Уникальный идентификатор : 225475973679226060200424256172079781735 (0xA9A117CB3C248EC095F2C0BF4C351767)
Полное имя : E:VIDEOSBBC HDGreek.Myths.1080i.HDTV.DD2.0-5.1.H264-CasStudioGreek.Myths.E01.Tales.of.Travelling.Heroes.1080i.HDTV.DD2.0-5.1.H264-CasStudio.mkv
Формат : Matroska
Версия формата : Version 4 / Version 2
Размер файла : 3,04 Гбайт
Продолжительность : 49 м.
Общий поток : 8780 Кбит/сек
Название фильма : Greek.Myths.E01.Tales.of.Travelling.Heroes.1080i.HDTV.DD2.0-5.1.H264-CasStudio
Дата кодирования : UTC 2014-02-08 21:04:59
Программа кодирования : mkvmerge v6.7.0 ('Back to the Ground') 32bit built on Jan 8 2014 15:03:17
Библиотека кодирования : libebml v1.3.0 + libmatroska v1.4.1
Видео
Идентификатор : 1
Формат : AVC
Формат/Информация : Advanced Video Codec
Профиль формата : Main@L4.0
Параметр CABAC формата : Да
Параметр ReFrames формата : 4 кадра
Идентификатор кодека : V_MPEG4/ISO/AVC
Продолжительность : 49 м.
Битрейт : 7934 Кбит/сек
Ширина : 1920 пикселей
Высота : 1080 пикселей
Соотношение сторон : 16:9
Режим частоты кадров : Постоянный
Частота кадров : 25,000 кадров/сек
Цветовое пространство : YUV
Субдискретизация насыщенности : 4:2:0
Битовая глубина : 8 бит
Тип развёртки : MBAFF
Бит/(Пиксели*Кадры) : 0.153
Размер потока : 2,75 Гбайт (90%)
Язык : English
Default : Да
Forced : Нет
Основные цвета : BT.709
Характеристики трансфера : BT.709
Коэффициенты матрицы : BT.709
Аудио #1
Идентификатор : 2
Формат : AC-3
Формат/Информация : Audio Coding 3
Расширение режима : CM (complete main)
Параметр Endianness формата : Big
Идентификатор кодека : A_AC3
Продолжительность : 49 м.
Вид битрейта : Постоянный
Битрейт : 224 Кбит/сек
Каналы : 2 канала
Расположение каналов : Front: L R
Частота : 48,0 КГц
Битовая глубина : 16 бит
Метод сжатия : С потерями
Задержка видео : -136 мс.
Размер потока : 79,4 Мбайт (3%)
Язык : Russian
Default : Да
Forced : Нет
Аудио #2
Идентификатор : 3
Формат : AC-3
Формат/Информация : Audio Coding 3
Расширение режима : CM (complete main)
Параметр Endianness формата : Big
Идентификатор кодека : A_AC3
Продолжительность : 49 м.
Вид битрейта : Постоянный
Битрейт : 448 Кбит/сек
Каналы : 6 каналов
Расположение каналов : Front: L C R, Side: L R, LFE
Частота : 48,0 КГц
Битовая глубина : 16 бит
Метод сжатия : С потерями
Задержка видео : -136 мс.
Размер потока : 159 Мбайт (5%)
Язык : English
Default : Нет
Forced : Нет






   Похожие торренты   Торрент   Размер 
В этой теме нет новых непрочитанных сообщений. Tegma - Greek Myths (2015) MP3

85 | 0

175.12 МБ

В этой теме нет новых непрочитанных сообщений. BBC: Мифы и герои / BBC: In Search of Myths and Heroes [4 из 4] (2005) DVDRip от ExKinoRay

20 | 5

4.3 ГБ

В этой теме нет новых непрочитанных сообщений. Мифы об Орионе: Свет Севера / Myths of Orion: Light from the North (2014) PC

1133 | 36

484.64 МБ

В этой теме нет новых непрочитанных сообщений. Мифы Народов Мира 3: Дух Волка / Myths of the World 3: Spirit Wolf CE (2014) РС

539 | 13

1.35 ГБ

В этой теме нет новых непрочитанных сообщений. Разрушители легенд: Рекламные мифы / MythBusters: Commercial Myths (2014) WEB-DLRip

121 | 7

681.99 МБ

В этой теме нет новых непрочитанных сообщений. Мифы Перл Харбора / Discovery Civilisation : Myths of Perl Harbour (2008) TVRip

3 | 2

791.82 МБ

В этой теме нет новых непрочитанных сообщений. Мифы народов мира: Украденная весна / Myths of the World 2: Stolen Spring CE (2013) РС

309 | 15

1.31 ГБ




Вы не можете начинать темы
Вы не можете отвечать на сообщения
Вы не можете редактировать свои сообщения
Вы не можете удалять свои сообщения
Вы не можете добавлять вложения

Перейти:  
Для Мосгорсуда, Роскомнадзора и рекламодателей: mosgorsud-torrent[собачка]yandex.ru
 Вход
ppkBB3cker v.2 © 2008-2014 @ PPK
[ Time : 0.087s | 16 Queries | GZIP : Off ]

Торрент трекер RUTOR.IN, Не можете зайти на rutor.org? Какой новый адрес рутор? Какое зеркало рутор? Не работает rutor.org и зеркала? Тогда наш торрент специально для вас. Rutor.in неофициальное зеркало rutor. В случае если у Вас заблокирован rutor или вдруг Вы не можете на него зайти, то Вы без труда сможете скачать бесплатно и без рекламы последние новинки кино, игр, сериалов и прочего у нас, на Rutor.in. Не нужно использовать прокси, чтобы зайти на рутор, достаточно воспользоваться нашим ресурсом. Все новые фильмы, игры, сериалы, книги и музыка за 2013 и 2014 годы через торрент бесплатно. Скачивайте фильмы в хорошем качестве, игры для пк, xbox, playstation без регистрации. У нас вы найдете новые Зарубежные сериалы и Русские сериалы 2013, 2014, 2015 годов. Оставайтесь с нами, качайте любимые фильмы, игры, сериалы, книги и музыку.