img image001 image001 image001 image001 image001 image001 image001 image001 image001 image001 image001 image001 image001 image001 image001 image001

Planets Sun Sun Sun
Статистика раздачи
Автор: Nickolas3434 | Размер: 1.98 ГБ | Добавлен: 02 апр 2014
Раздают: 32    Качают: 41
Скачать торрент
Скачать торрент
Описание торрента

СообщениеДобавлено: 02 апр 2014 


Информация о фильме
Название: BBC: Horizon. Гибель океана? / Horizon. The Death of the Oceans?
Год выпуска: 2010
Жанр: Документальный, природа, экология


Описание:
Площадь поверхности мирового океана составляет около 71 процента поверхности Земли. Океаны и моря сделали возможной жизнь на нашей планете. Но что будет – если океаны вскоре станут непригодными для жизни?


Продолжительность: 00:50:24
Выпущено: , Великобритания
Перевод: Одноголосый закадровый (профессиональный)
Файл
Формат: MKV
Качество: HDTV 720
Видео: MPEG-4 AVC/H.264, ~5 400 Кбит/с, 1280 x 720
Аудио: AC3, 2 ch, 128 Кбит/с

General
Unique ID : 222830350303129324635721124429456760035 (0xA7A3907D9D0C403386FA7D4B412C5CE3)
Complete name : I:РЕЛИЗЫBBC.Horizon.Gibel okeana.(2010).HDTVRip.720p.mkv
Format : Matroska
Format version : Version 1
File size : 1.98 GiB
Duration : 50mn 24s
Overall bit rate : 5 633 Kbps
Encoded date : UTC 2012-10-31 17:31:24
Writing application : AVSMatroskaFile
Writing library : libebml v0.7.7 + libmatroska v0.8.1
Video
ID : 1
Format : AVC
Format/Info : Advanced Video Codec
Format profile : Main@L5.1
Format settings, CABAC : Yes
Format settings, ReFrames : 1 frame
Codec ID : V_MPEG4/ISO/AVC
Duration : 50mn 24s
Bit rate : 5 393 Kbps
Width : 1 280 pixels
Height : 720 pixels
Display aspect ratio : 16:9
Frame rate mode : Constant
Frame rate : 25.000 fps
Color space : YUV
Chroma subsampling : 4:2:0
Bit depth : 8 bits
Scan type : Progressive
Bits/(Pixel*Frame) : 0.234
Stream size : 1.90 GiB (96%)
Default : Yes
Forced : No
Audio
ID : 2
Format : MPEG Audio
Format version : Version 1
Format profile : Layer 2
Codec ID : A_MPEG/L2
Codec ID/Hint : MP2
Duration : 50mn 24s
Bit rate mode : Constant
Bit rate : 128 Kbps
Channel(s) : 2 channels
Sampling rate : 48.0 KHz
Compression mode : Lossy
Stream size : 46.1 MiB (2%)
Default : Yes
Forced : No






   Похожие торренты   Торрент   Размер 
В этой теме нет новых непрочитанных сообщений. BBC: Гибель океана? / BBC: The Death of the Oceans? (2010) HDTVRip-AVC от ~ F-Torrents ~

1 | 2

835.37 МБ

В этой теме нет новых непрочитанных сообщений. BBC. Horizon: Выжить в автокатастрофе / Horizon. Surviving a Car Crash (2011) HDTVRip 720p

223 | 11

1.81 ГБ

В этой теме нет новых непрочитанных сообщений. BBC: Horizon. Откуда берутся гении? / Horizon. What Makes a Genius? (2011) HDTVRip 720p | P2

63 | 29

1.78 ГБ

В этой теме нет новых непрочитанных сообщений. BBC Horizon. Миссия на Марс / BBC Horizon. Mission To Mars (2012) HDTVRip-AVC от F-Torrents

10 | 3

863.91 МБ

В этой теме нет новых непрочитанных сообщений. BBC Horizon: Что такое реальность? / BBC Horizon: What Is Reality ? (2011) HDTVRip-AVC от F-Torrents

54 | 2

850.4 МБ

В этой теме нет новых непрочитанных сообщений. BBC: Horizon. В поисках бессмертия / Horizon. The Immortalist (2016) HDTVRip от Kaztorrents | P1

177 | 3

741.03 МБ

В этой теме нет новых непрочитанных сообщений. BBC: Horizon. Как устроен ЦЕРН. Спецвыпуск / Inside CERN: A Horizon Special (2016) HDTVRip от Kaztorrents | P1

40 | 3

720.07 МБ




Вы не можете начинать темы
Вы не можете отвечать на сообщения
Вы не можете редактировать свои сообщения
Вы не можете удалять свои сообщения
Вы не можете добавлять вложения

Перейти:  
 Вход
ppkBB3cker v.2 © 2008-2014 @ PPK
[ Time : 0.046s | 15 Queries | GZIP : Off ]

cron