img image001 image001 image001 image001 image001 image001 image001 image001 image001 image001 image001 image001 image001 image001 image001

Planets Sun Sun Sun
Статистика раздачи
Автор: Nickolas3434 | Размер: 1.78 ГБ | Добавлен: 03 апр 2014
Раздают: 63    Качают: 29
Скачать торрент
Скачать торрент
Описание торрента

СообщениеДобавлено: 03 апр 2014 




Информация о фильме
Название: BBC: Horizon. Откуда берутся гении? / Horizon. What Makes a Genius?
Год выпуска: 2011
Жанр: Документальный, научно-популярный
Режиссер: Дэн Уолкер


Описание:
Откуда берутся гении? Как Уильям Шекспир писал свои гениальные пьесы, которые спустя несколько веков все также тревожат наши сердца и умы? Как Исаак Ньютон стал человеком, который открыл закон всемирного тяготения? Чем отличался мозг Альберта Энштейна, Наполеона II, композитора Георга Генделя и многих других гениев? Родился ли Джон Леннон с талантом писать песни?
Действительно ли - гениями не рождаются, а становятся?



Продолжительность: 00:58:53
Выпущено: , Великобритания
Перевод: Двухголосый закадровый (профессиональный) [Ред Медиа]
Файл
Формат: MKV
Качество: HDTVRip 720
Видео: MPEG-4 AVC/H.264, ~4 000 Кбит/с, 1280 x 720
Аудио: Русский AC3, 2 ch, 128 Кбит/c, english AC3, 2 ch, 192 Кбит/с

General
Unique ID : 205761167667606903136359420942474309617 (0x9ACC28CFC5054F9397265D63EA846FF1)
Complete name : I:РаздачиBBC.Horizon.2010.What.Makes.a.Genius.HDTV.720p.mkv
Format : Matroska
Format version : Version 4 / Version 2
File size : 1.78 GiB
Duration : 58mn 53s
Overall bit rate : 4 322 Kbps
Movie name : BBC Horizon - What makes a genius? (2011)
Encoded date : UTC 2013-08-14 12:01:38
Writing application : mkvmerge v6.3.0 ('You can't stop me!') built on Jun 28 2013 20:09:41
Writing library : libebml v1.3.0 + libmatroska v1.4.0
Video
ID : 1
Format : AVC
Format/Info : Advanced Video Codec
Format profile : High@L4.1
Format settings, CABAC : Yes
Format settings, ReFrames : 4 frames
Codec ID : V_MPEG4/ISO/AVC
Duration : 58mn 53s
Bit rate : 4 000 Kbps
Width : 1 280 pixels
Height : 720 pixels
Display aspect ratio : 16:9
Frame rate mode : Constant
Frame rate : 25.000 fps
Color space : YUV
Chroma subsampling : 4:2:0
Bit depth : 8 bits
Scan type : Progressive
Bits/(Pixel*Frame) : 0.174
Stream size : 1.61 GiB (91%)
Writing library : x264 core 80 r1376M 3feaec2
Encoding settings : cabac=1 / ref=4 / deblock=1:0:0 / analyse=0x3:0x113 / me=umh / subme=9 / psy=1 / psy_rd=1.0:0.0 / mixed_ref=0 / me_range=24 / chroma_me=1 / trellis=1 / 8x8dct=1 / cqm=0 / deadzone=21,11 / fast_pskip=0 / chroma_qp_offset=-2 / threads=3 / sliced_threads=0 / nr=0 / decimate=1 / mbaff=0 / constrained_intra=0 / bframes=3 / b_pyramid=0 / b_adapt=1 / b_bias=0 / direct=1 / wpredb=1 / wpredp=2 / keyint=125 / keyint_min=25 / scenecut=40 / rc_lookahead=40 / rc=2pass / mbtree=1 / bitrate=4000 / ratetol=1.0 / qcomp=0.60 / qpmin=10 / qpmax=51 / qpstep=4 / cplxblur=20.0 / qblur=0.5 / vbv_maxrate=50000 / vbv_bufsize=50000 / ip_ratio=1.40 / aq=1:1.00
Language : English
Default : Yes
Forced : No
Audio #1
ID : 2
Format : AC-3
Format/Info : Audio Coding 3
Mode extension : CM (complete main)
Format settings, Endianness : Big
Codec ID : A_AC3
Duration : 58mn 53s
Bit rate mode : Constant
Bit rate : 128 Kbps
Channel(s) : 2 channels
Channel positions : Front: L R
Sampling rate : 48.0 KHz
Bit depth : 16 bits
Compression mode : Lossy
Stream size : 53.9 MiB (3%)
Language : Russian
Default : Yes
Forced : No
Audio #2
ID : 3
Format : AC-3
Format/Info : Audio Coding 3
Mode extension : CM (complete main)
Format settings, Endianness : Big
Codec ID : A_AC3
Duration : 58mn 53s
Bit rate mode : Constant
Bit rate : 192 Kbps
Channel(s) : 2 channels
Channel positions : Front: L R
Sampling rate : 48.0 KHz
Bit depth : 16 bits
Compression mode : Lossy
Delay relative to video : 25ms
Stream size : 80.9 MiB (4%)
Language : English
Default : No
Forced : No
Text
ID : 4
Format : UTF-8
Codec ID : S_TEXT/UTF8
Codec ID/Info : UTF-8 Plain Text
Language : English
Default : No
Forced : No







   Похожие торренты   Торрент   Размер 
В этой теме нет новых непрочитанных сообщений. Откуда берутся гении? / BBC Horizon - What Makes a Genius? (2010) HDTVRip-AVC от -=HD-NET=-

6 | 1

791.33 МБ

В этой теме нет новых непрочитанных сообщений. BBC. Horizon: Выжить в автокатастрофе / Horizon. Surviving a Car Crash (2011) HDTVRip 720p

223 | 11

1.81 ГБ

В этой теме нет новых непрочитанных сообщений. BBC Horizon: Что такое реальность? / BBC Horizon: What Is Reality ? (2011) HDTVRip-AVC от F-Torrents

54 | 2

850.4 МБ

В этой теме нет новых непрочитанных сообщений. BBC: Horizon. Гибель океана? / Horizon. The Death of the Oceans? (2010) HDTVRip 720p | P1

32 | 41

1.98 ГБ

В этой теме нет новых непрочитанных сообщений. BBC Horizon. Миссия на Марс / BBC Horizon. Mission To Mars (2012) HDTVRip-AVC от F-Torrents

10 | 3

863.91 МБ

В этой теме нет новых непрочитанных сообщений. BBC: Horizon. В поисках бессмертия / Horizon. The Immortalist (2016) HDTVRip от Kaztorrents | P1

177 | 3

741.03 МБ

В этой теме нет новых непрочитанных сообщений. BBC: Horizon. Электронные сигареты: чудо или угроза? / Horizon. E-Cigarettes: Miracle or Menace? (2016) HDTVRip от Kaztorrents | L1

495 | 13

803.15 МБ




Вы не можете начинать темы
Вы не можете отвечать на сообщения
Вы не можете редактировать свои сообщения
Вы не можете удалять свои сообщения
Вы не можете добавлять вложения

Перейти:  
Для Мосгорсуда, Роскомнадзора и рекламодателей: mosgorsud-torrent[собачка]yandex.ru
 Вход
ppkBB3cker v.2 © 2008-2014 @ PPK
[ Time : 0.586s | 14 Queries | GZIP : On ]

Торрент трекер RUTOR.IN, Не можете зайти на rutor.org? Какой новый адрес рутор? Какое зеркало рутор? Не работает rutor.org и зеркала? Тогда наш торрент специально для вас. Rutor.in неофициальное зеркало rutor. В случае если у Вас заблокирован rutor или вдруг Вы не можете на него зайти, то Вы без труда сможете скачать бесплатно и без рекламы последние новинки кино, игр, сериалов и прочего у нас, на Rutor.in. Не нужно использовать прокси, чтобы зайти на рутор, достаточно воспользоваться нашим ресурсом. Все новые фильмы, игры, сериалы, книги и музыка за 2013 и 2014 годы через торрент бесплатно. Скачивайте фильмы в хорошем качестве, игры для пк, xbox, playstation без регистрации. У нас вы найдете новые Зарубежные сериалы и Русские сериалы 2013, 2014, 2015 годов. Оставайтесь с нами, качайте любимые фильмы, игры, сериалы, книги и музыку.