img image001 image001 image001 image001 image001 image001 image001 image001 image001 image001 image001 image001 image001 image001 image001

Planets Sun Sun Sun
Статистика раздачи
Автор: Nickolas3434 | Размер: 449.95 МБ | Добавлен: 03 апр 2014
Раздают: 20    Качают: 20
Скачать торрент
Скачать торрент
Описание торрента

СообщениеДобавлено: 03 апр 2014 

Информация о фильме
Название: Поворотные моменты истории. Иран предан. Аятолла Хомейни.
Оригинальное название: Iran betrayed
Год выхода: 2004
Жанр: Документальный, история
Режиссер: Надин Пекьюнеза
В ролях: Политические, религиозные деятели. Историки, публицисты, участники событий

О фильме:
Революция 1357 года (по иранскому календарю) — цепь событий в Иране в январе 1978 — феврале 1979 годов, следствием которых стали эмиграция шаха Мохаммеда Реза Пехлеви, упразднение монархии и установление новой администрации, которую возглавил аятолла Хомейни.

Собственно датой начала революции в Иране принято считать 8 января 1978 года, когда первая крупная антиправительственная демонстрация в Куме была подавлена с необоснованной жестокостью. В течение всего 1978 года в различных городах Ирана представители исламского духовенства организовывали демонстрации, решительно разгонявшиеся шахской гвардией. К концу года революционеры перешли к тактике экономических стачек и забастовок, что полностью парализовало экономику. Будучи более не в силах удерживать власть в своих руках, шах передал власть премьер-министру из числа умеренных оппозиционеров и бежал из страны.

1 февраля 1979 года в Иран вернулся опальный аятолла Хомейни, который взял власть в свои руки. Было назначено новое переходное правительство. В марте был проведен референдум о новом политическом устройстве, и 1 апреля 1979 года Иран был объявлен первой Исламской республикой.

Исламская революция в Иране стала одним из ключевых событий XX века и имела огромное историческое значение для всего мира. Установление прочной исламской власти в богатом углеводородами Иране поставило под сомнение неформальное лидерство суннитской Саудовской Аравии в мусульманском мире.

Страна: Канада
Студия: Barna-Alper Productions, Connections Productions (CPTV)
Продолжительность: 00:46:45
Перевод: Одноголосый профессиональный

Файл
Кодек: Xvid (FourCC заменен на DivX)
Качество: TVRip
Видео: 720х544, 1112 Kbps, 25.000 fps
Звук: AC3 2.0, 224 Kbps
Субтитры: Языки и типы субтитров

Семпл



General
Complete name : L:Pshichko66Na zapis'Ayatolla Homeini.avi
Format : AVI
Format/Info : Audio Video Interleave
File size : 450 MiB
Duration : 46mn 45s
Overall bit rate : 1 345 Kbps
Writing application : VirtualDubMod 1.5.10.2 (build 2540/release)
Writing library : VirtualDubMod build 2540/release

Video
ID : 0
Format : MPEG-4 Visual
Format profile : Advanced Simple@L5
Format settings, BVOP : 1
Format settings, QPel : No
Format settings, GMC : No warppoints
Format settings, Matrix : Default (MPEG)
Codec ID : DIVX
Codec ID/Info : Project Mayo
Codec ID/Hint : DivX 4
Duration : 46mn 45s
Bit rate : 1 112 Kbps
Width : 720 pixels
Height : 544 pixels
Display aspect ratio : 4:3
Frame rate : 25.000 fps
Color space : YUV
Chroma subsampling : 4:2:0
Bit depth : 8 bits
Scan type : Progressive
Compression mode : Lossy
Bits/(Pixel*Frame) : 0.114
Stream size : 372 MiB (83%)
Writing library : XviD 64

Audio
ID : 1
Format : AC-3
Format/Info : Audio Coding 3
Mode extension : CM (complete main)
Format settings, Endianness : Big
Codec ID : 2000
Duration : 46mn 45s
Bit rate mode : Constant
Bit rate : 224 Kbps
Channel count : 2 channels
Channel positions : Front: L R
Sampling rate : 48.0 KHz
Bit depth : 16 bits
Compression mode : Lossy
Stream size : 74.9 MiB (17%)
Alignment : Split accross interleaves
Interleave, duration : 40 ms (1.00 video frame)
Interleave, preload duration : 500 ms

Релиз от: Pshichko66



   Похожие торренты   Торрент   Размер 
В этой теме нет новых непрочитанных сообщений. Переломные моменты истории / The Crossroads of History [s01] (2016) WEBRip 720p от Ozz | P2

91 | 8

906.68 МБ

В этой теме нет новых непрочитанных сообщений. Переломные моменты истории / The Crossroads of History [s01] (2016) WEBRip 720p от Ozz | P2

55 | 5

801.43 МБ

В этой теме нет новых непрочитанных сообщений. Переломные моменты истории / The Crossroads of History [01x01-04 из 06] (2016) WEBRip 720p от Ozz | P2

17 | 2

515.27 МБ

В этой теме нет новых непрочитанных сообщений. Переломные моменты истории / The Crossroads of History [01x01-06 из 07] (2016) WEBRip 720p от Ozz | P2

0 | 0

713.28 МБ

В этой теме нет новых непрочитанных сообщений. Переломные моменты истории / The Crossroads of History [01x01-02 из 06] (2016) WEBRip 720p от Ozz | P2

137 | 11

269.7 МБ

В этой теме нет новых непрочитанных сообщений. Переломные моменты истории / The Crossroads of History [01x01-05 из 06] (2016) WEBRip 720p от Ozz | P2

42 | 4

619.15 МБ

В этой теме нет новых непрочитанных сообщений. Переломные моменты истории / The Crossroads of History [01x01-03 из 06] (2016) WEBRip 720p от Ozz | P2

119 | 14

391.75 МБ




Вы не можете начинать темы
Вы не можете отвечать на сообщения
Вы не можете редактировать свои сообщения
Вы не можете удалять свои сообщения
Вы не можете добавлять вложения

Перейти:  
Для Мосгорсуда, Роскомнадзора и рекламодателей: mosgorsud-torrent[собачка]yandex.ru
 Вход
ppkBB3cker v.2 © 2008-2014 @ PPK
[ Time : 0.019s | 15 Queries | GZIP : On ]

Торрент трекер RUTOR.IN, Не можете зайти на rutor.org? Какой новый адрес рутор? Какое зеркало рутор? Не работает rutor.org и зеркала? Тогда наш торрент специально для вас. Rutor.in неофициальное зеркало rutor. В случае если у Вас заблокирован rutor или вдруг Вы не можете на него зайти, то Вы без труда сможете скачать бесплатно и без рекламы последние новинки кино, игр, сериалов и прочего у нас, на Rutor.in. Не нужно использовать прокси, чтобы зайти на рутор, достаточно воспользоваться нашим ресурсом. Все новые фильмы, игры, сериалы, книги и музыка за 2013 и 2014 годы через торрент бесплатно. Скачивайте фильмы в хорошем качестве, игры для пк, xbox, playstation без регистрации. У нас вы найдете новые Зарубежные сериалы и Русские сериалы 2013, 2014, 2015 годов. Оставайтесь с нами, качайте любимые фильмы, игры, сериалы, книги и музыку.