img image001 image001 image001 image001 image001 image001 image001 image001 image001 image001 image001 image001 image001 image001 image001

Planets Sun Sun Sun
Статистика раздачи
Автор: Nickolas3434 | Размер: 5.13 ГБ | Добавлен: 06 апр 2014
Раздают: 186    Качают: 65
Скачать торрент
Скачать торрент
Описание торрента

СообщениеДобавлено: 06 апр 2014 




Информация о фильме
Название: Совершенно секретно. Тайны мировых спецслужб / Secrets Of...
Год выпуска: 2012
Жанр: Документальный, спецназ, история


Описание:
Military Channel раскрывает секреты самых загадочных органов, технологий, компаний и групп в мире, таких как Delta Force, Shadow Military, ЦРУ Black Ops, Navy SEALs, зеленых беретов и рейнджеров Армии. От того, как они обучены, какие технологии они используют в этой области, секреты ... исследует эти элитные группы и показывает, почему они так эффективны.


01. Delta Force
02. Shadow Military
03. CIA Black Ops
04. Navy SEALs
05. Army Rangers
06. Marine Force Recon
07. Diplomatic security
08. Foreign Special Ops

Релиз от semenonn
качество: DVB
формат: TS/M2TS
Видео: AVC, 720х576, 4:3, 1652 Кбит/сек, 25 fps
Аудио:(Rus): MPEG Audio, 160 Кбит/сек, 48 КГц, 2 канала
Аудио 2:(Eng): MPEG Audio, 160 Кбит/сек, 48 КГц, 2 канала


Продолжительность: 08 x ~ 00:44:00
Выпущено: Великобритания, Discovery Channel
Перевод: Профессиональный одноголосный
Субтитры: Отсутствуют
Файл
Формат: TS
Качество: DVB
Видео: MPEG-4 AVC, 1652 Кбит/с, 720х576@768х576
Аудио: MP3, 2 ch, 160 Кбит/с

Общее
Идентификатор : 16 (0x10)
Полное имя : Secrets of_Delta Force.ts
Формат : MPEG-TS
Размер файла : 654 Мбайт
Продолжительность : 44 м.
Режим общего битрейта : Переменный
Общий поток : 2078 Кбит/сек
Видео
Идентификатор : 1407 (0x57F)
Идентификатор меню : 407 (0x197)
Формат : AVC
Формат/Информация : Advanced Video Codec
Профиль формата : Main@L3.0
Параметр CABAC формата : Да
Параметр ReFrames формата : 3 кадра
Идентификатор кодека : 27
Продолжительность : 43 м.
Битрейт : 1652 Кбит/сек
Ширина : 720 пикселей
Высота : 576 пикселей
Соотношение сторон : 4:3
Частота кадров : 25,000 кадров/сек
Стандарт вещания : PAL
Цветовое пространство : YUV
Субдискретизация насыщенности : 4:2:0
Битовая глубина : 8 бит
Тип развёртки : Чересстрочная
Порядок развёртки : Верхнее поле первое
Бит/(Пиксели*Кадры) : 0.159
Размер потока : 520 Мбайт (79%)
Основные цвета : BT.601 PAL
Характеристики трансфера : BT.470 System B, BT.470 System G
Коэффициенты матрицы : BT.601
Аудио #1
Идентификатор : 2407 (0x967)
Идентификатор меню : 407 (0x197)
Формат : MPEG Audio
Версия формата : Version 1
Профиль формата : Layer 2
Идентификатор кодека : 4
Продолжительность : 43 м.
Вид битрейта : Постоянный
Битрейт : 160 Кбит/сек
Каналы : 2 канала
Частота : 48,0 КГц
Метод сжатия : С потерями
Задержка видео : 13 мс.
Размер потока : 50,3 Мбайт (8%)
Язык : std
Язык, дополнительно : Clean effects
Аудио #2
Идентификатор : 3407 (0xD4F)
Идентификатор меню : 407 (0x197)
Формат : MPEG Audio
Версия формата : Version 1
Профиль формата : Layer 2
Идентификатор кодека : 4
Продолжительность : 43 м.
Вид битрейта : Постоянный
Битрейт : 160 Кбит/сек
Каналы : 2 канала
Частота : 48,0 КГц
Метод сжатия : С потерями
Задержка видео : 133 мс.
Размер потока : 50,3 Мбайт (8%)
Язык : English
Язык, дополнительно : Clean effects
[






   Похожие торренты   Торрент   Размер 
В этой теме нет новых непрочитанных сообщений. Discovery: Совершенно секретно. Тайны мировых спецслужб / Secrets Of... [01-04 из 04] (2012) SATRip | P1

236 | 71

1.9 ГБ

В этой теме нет новых непрочитанных сообщений. Discovery: Совершенно секретно. Тайны мировых спецслужб / Secrets Of... [01-08 из 08] (2012) SATRip от GeneralFilm | P1

176 | 107

4.04 ГБ

В этой теме нет новых непрочитанных сообщений. Discovery: Совершенно секретно. Тайны мировых спецслужб / Secrets Of... [01-06 из 06] (2012) SATRip от GeneralFilm | P1

17 | 87

3.03 ГБ

В этой теме нет новых непрочитанных сообщений. Совершенно секретно: Тайны острова Даманский (2007) SATRip

150 | 5

584.14 МБ

В этой теме нет новых непрочитанных сообщений. Совершенно секретно. Аудитория [01-48] (2012-2014) SATRip от Generalfilm

2 | 11

44.69 ГБ

В этой теме нет новых непрочитанных сообщений. Совершенно секретно. Аудитория [01-50] (2012-2014) SATRip от Generalfilm

1 | 8

46.69 ГБ

В этой теме нет новых непрочитанных сообщений. Совершенно секретно. Аудитория [28 выпуска] (2012-2013) SATRip

0 | 4

22.88 ГБ




Вы не можете начинать темы
Вы не можете отвечать на сообщения
Вы не можете редактировать свои сообщения
Вы не можете удалять свои сообщения
Вы не можете добавлять вложения

Перейти:  
Для Мосгорсуда, Роскомнадзора и рекламодателей: mosgorsud-torrent[собачка]yandex.ru
 Вход
ppkBB3cker v.2 © 2008-2014 @ PPK
[ Time : 0.025s | 14 Queries | GZIP : Off ]

Торрент трекер RUTOR.IN, Не можете зайти на rutor.org? Какой новый адрес рутор? Какое зеркало рутор? Не работает rutor.org и зеркала? Тогда наш торрент специально для вас. Rutor.in неофициальное зеркало rutor. В случае если у Вас заблокирован rutor или вдруг Вы не можете на него зайти, то Вы без труда сможете скачать бесплатно и без рекламы последние новинки кино, игр, сериалов и прочего у нас, на Rutor.in. Не нужно использовать прокси, чтобы зайти на рутор, достаточно воспользоваться нашим ресурсом. Все новые фильмы, игры, сериалы, книги и музыка за 2013 и 2014 годы через торрент бесплатно. Скачивайте фильмы в хорошем качестве, игры для пк, xbox, playstation без регистрации. У нас вы найдете новые Зарубежные сериалы и Русские сериалы 2013, 2014, 2015 годов. Оставайтесь с нами, качайте любимые фильмы, игры, сериалы, книги и музыку.