img image001 image001 image001 image001 image001 image001 image001 image001 image001 image001 image001 image001 image001 image001 image001

Planets Sun Sun Sun
Статистика раздачи
Автор: Nickolas3434 | Размер: 350.11 МБ | Добавлен: 05 апр 2014
Раздают: 755    Качают: 94
Скачать торрент
Скачать торрент
Описание торрента

СообщениеДобавлено: 05 апр 2014 

Информация о фильме
Название: Кухня в Парижe. Кухня кухни. Фильм о фильме
Год выпуска: 2014
Жанр: Документальный
Режиссер: Дмитрий Дьяченко
В ролях: Дмитрий Назаров, Дмитрий Нагиев, Елена Подкаминская, Марина Могилевская, Марк Богатырёв, Виктор Хориняк, Ольга Кузьмина, Екатерина Кузнецова, Валерия Федорович, Жанныл Асанбекова, Елена Чернявская, Алексей Колган, Сергей Лавыгин, Сергей Епишев, Михаил Тарабукин, Никита Тарасов, Юлия Такшина, Виктория Лукина, Виталий Щанников, Сергей Беляев, Роман Индык, Евгения Храповицкая, Ольга Новосад, Серафима Низовская, Александр Карпиловский, Мария Горбань, Ирина Бразговка
Описание:
В основу фильма о фильме Кухня в Париже легли материалы, снятые за кадром, неудачные и потому очень смешные дубли, комментарии актеров и продюсеров.
Продолжительность: 00:24:05
Выпущено: Россия, YBW Group, Yellow, Black & White,
Перевод: Не требуется

Файл
Формат: AVI
Качество: SATRip
Видео: 720x400 (1.80:1), 25 fps, XviD build 73 ~1887 kbps avg, 0.26 bit/pixel
Аудио: 48 kHz, MPEG Layer 3, 2 ch, ~128.00 kbps avg
Код:
Общее
Полное имя                               : D:Рипы выкладка [Deadmauvlad]Рипы готовыеKuhnja.v.Parizhe.2014.WEB-DLRip.Deadmauvlad.avi
Формат                                   : AVI
Формат/Информация                        : Audio Video Interleave
Размер файла                             : 350 Мбайт
Продолжительность                        : 24 м.
Общий поток                              : 2025 Кбит/сек
Название фильма                          : Kuhnja.v.Parizhe.2014.WEB-DLRip.Deadmauvlad
Режиссёр                                 : Deadmauvlad
Жанр                                     : Драма
Программа кодирования                    : VirtualDubMod 1.5.10.3 | www.virtualdub-fr.org || (build 2550/release)
Формат оригинала/Имя                     : Фильм
Правообладатель                          : Goldenshara

Видео
Идентификатор                            : 0
Формат                                   : MPEG-4 Visual
Профиль формата                          : Advanced Simple@L5
Параметр BVOP формата                    : 1
Параметр QPel формата                    : Нет
Параметр GMC формата                     : Без точки перехода
Параметр матрицы формата                 : Выборочная
Идентификатор кодека                     : XVID
Идентификатор кодека/Подсказка           : XviD
Продолжительность                        : 24 м.
Битрейт                                  : 1888 Кбит/сек
Ширина                                   : 720 пикселей
Высота                                   : 400 пикселей
Соотношение сторон                       : 16:9
Частота кадров                           : 25,000 кадров/сек
Цветовое пространство                    : YUV
Субдискретизация насыщенности            : 4:2:0
Битовая глубина                          : 8 бит
Тип развёртки                            : Прогрессивная
Метод сжатия                             : С потерями
Бит/(Пиксели*Кадры)                      : 0.262
Размер потока                            : 326 Мбайт (93%)
Библиотека кодирования                   : XviD 73

Аудио
Идентификатор                            : 1
Формат                                   : MPEG Audio
Версия формата                           : Version 1
Профиль формата                          : Layer 3
Идентификатор кодека                     : 55
Идентификатор кодека/Подсказка           : MP3
Продолжительность                        : 24 м.
Вид битрейта                             : Постоянный
Битрейт                                  : 128 Кбит/сек
Каналы                                   : 2 канала
Частота                                  : 48,0 КГц
Метод сжатия                             : С потерями
Размер потока                            : 22,1 Мбайт (6%)
Выравнивание                             : Соединение по промежуткам
Продолжительность промежутка             : 40  мс. (1,00 видеокадр)
Время предзагрузки промежутка            : 504  мс.
Библиотека кодирования                   : LAME3.99r
Настройки программы                      : -m s -V 4 -q 2 -lowpass 17 -b 128







   Похожие торренты   Торрент   Размер 
В этой теме нет новых непрочитанных сообщений. Кухня в Парижe. Кухня кухни. Фильм о фильме (2014) SATRip

1471 | 38

282.1 МБ

В этой теме нет новых непрочитанных сообщений. Кухня в Парижe (2014) HDRip от MediaClub | КПК

88 | 5

476.86 МБ

В этой теме нет новых непрочитанных сообщений. Кухня в Парижe (2014) BDRip от HQCLUB

964 | 63

1.45 ГБ

В этой теме нет новых непрочитанных сообщений. Кухни народов мира. Кавказская кухня (2005) DVDRip

36 | 2

699.73 МБ

В этой теме нет новых непрочитанных сообщений. Ёсимото Банана - Кухня, Полная луна (Кухня-2) (2004) FB2, TXT

27 | 15

685.51 КБ

В этой теме нет новых непрочитанных сообщений. Кухня в Париже (2014) WEB-DLRip от Scarabey

343 | 27

746.04 МБ

В этой теме нет новых непрочитанных сообщений. Кухня в Париже (2014) WEB-DLRip | iTunes

2173 | 16

1.46 ГБ




Вы не можете начинать темы
Вы не можете отвечать на сообщения
Вы не можете редактировать свои сообщения
Вы не можете удалять свои сообщения
Вы не можете добавлять вложения

Перейти:  
Для Мосгорсуда, Роскомнадзора и рекламодателей: mosgorsud-torrent[собачка]yandex.ru
 Вход
ppkBB3cker v.2 © 2008-2014 @ PPK
[ Time : 0.025s | 15 Queries | GZIP : Off ]

Торрент трекер RUTOR.IN, Не можете зайти на rutor.org? Какой новый адрес рутор? Какое зеркало рутор? Не работает rutor.org и зеркала? Тогда наш торрент специально для вас. Rutor.in неофициальное зеркало rutor. В случае если у Вас заблокирован rutor или вдруг Вы не можете на него зайти, то Вы без труда сможете скачать бесплатно и без рекламы последние новинки кино, игр, сериалов и прочего у нас, на Rutor.in. Не нужно использовать прокси, чтобы зайти на рутор, достаточно воспользоваться нашим ресурсом. Все новые фильмы, игры, сериалы, книги и музыка за 2013 и 2014 годы через торрент бесплатно. Скачивайте фильмы в хорошем качестве, игры для пк, xbox, playstation без регистрации. У нас вы найдете новые Зарубежные сериалы и Русские сериалы 2013, 2014, 2015 годов. Оставайтесь с нами, качайте любимые фильмы, игры, сериалы, книги и музыку.