img image001 image001 image001 image001 image001 image001 image001 image001 image001 image001 image001 image001 image001 image001 image001

Planets Sun Sun Sun
Статистика раздачи
Автор: Nickolas3434 | Размер: 584.53 МБ | Добавлен: 05 апр 2014
Раздают: 55    Качают: 15
Скачать торрент
Скачать торрент
Описание торрента

СообщениеДобавлено: 05 апр 2014 




Информация о фильме
Название: Discovery: Уличные гонки / Street Outlaws
Год выпуска: 2014
Жанр: Реалити-шоу, познавательный
Режиссеры: Кевин Коннолли, Стив Эркел, Спенсер Кеймон, Вильям Моррис, Грег Неш, Пол Виферс


Описание:
Участники нелегальных уличных гонок из Оклахома-Сити вновь садятся за руль, чтобы определить, кто войдет в десятку лучших. Этому высокооктановому гоночному коллективу нет равных.


Продолжительность: 00:44:02
Выпущено:
Перевод: Профессиональный (многоголосый, закадровый)
Автор рипа: vn_tuzhilin
Файл
Формат: AVI
Качество: SATRip
Видео: XviD, ~1718 kb/s, 704 x 400
Аудио: MP3, 2.0ch., 128 kb/s

Формат : AVI
Формат/Информация : Audio Video Interleave
Размер файла : 585 Мбайт
Продолжительность : 44 м.
Общий поток : 1855 Кбит/сек
Программа кодирования : VirtualDubMod 1.5.10.2 (build 2540/release)
Библиотека кодирования : VirtualDubMod build 2540/release
Видео
Идентификатор : 0
Формат : MPEG-4 Visual
Профиль формата : Advanced Simple@L5
Параметр BVOP формата : 1
Параметр QPel формата : Нет
Параметр GMC формата : Без точки перехода
Параметр матрицы формата : Default (H.263)
Идентификатор кодека : XVID
Идентификатор кодека/Подсказка : XviD
Продолжительность : 44 м.
Битрейт : 1718 Кбит/сек
Ширина : 704 пикселя
Высота : 400 пикселей
Соотношение сторон : 16:9
Частота кадров : 25,000 кадров/сек
Цветовое пространство : YUV
Субдискретизация насыщенности : 4:2:0
Битовая глубина : 8 бит
Тип развёртки : Прогрессивная
Метод сжатия : С потерями
Бит/(Пиксели*Кадры) : 0.244
Размер потока : 541 Мбайт (93%)
Библиотека кодирования : XviD 1.2.1 (UTC 2008-12-04)
Аудио
Идентификатор : 1
Формат : MPEG Audio
Версия формата : Version 1
Профиль формата : Layer 3
Идентификатор кодека : 55
Идентификатор кодека/Подсказка : MP3
Продолжительность : 44 м.
Вид битрейта : Постоянный
Битрейт : 128 Кбит/сек
Каналы : 2 канала
Частота : 44,1 КГц
Метод сжатия : С потерями
Размер потока : 40,3 Мбайт (7%)
Выравнивание : Разделение по промежуткам
Продолжительность промежутка : 40 мс. (1,00 видеокадр)
Время предзагрузки промежутка : 500 мс.
Библиотека кодирования : LAME3.98r
Настройки программы : -m s -V 4 -q 2 -lowpass 17 -b 128






   Похожие торренты   Торрент   Размер 
В этой теме нет новых непрочитанных сообщений. Discovery: Уличные гонки / Street Outlaws [06.04] (2014) SATRip | P

39 | 17

565.21 МБ

В этой теме нет новых непрочитанных сообщений. Discovery. Уличные гонки / Street Outlaws [S03] (2014) SATRip от GeneralFilm | P2

45 | 6

4.08 ГБ

В этой теме нет новых непрочитанных сообщений. Discovery. Уличные гонки / Street Outlaws [04х01 из 10] (2014) HDTVRip от GeneralFilm | P2

8 | 7

3.73 ГБ

В этой теме нет новых непрочитанных сообщений. Discovery. Уличные гонки / Street Outlaws [04х01 из 10] (2014) HDTVRip от GeneralFilm | P2

1 | 2

2.13 ГБ

В этой теме нет новых непрочитанных сообщений. Discovery. Уличные гонки / Street Outlaws [04х01 из 10] (2014) HDTVRip от GeneralFilm | P2

7 | 3

1.06 ГБ

В этой теме нет новых непрочитанных сообщений. Discovery. Уличные гонки / Street Outlaws [04х01 из 10] (2014) HDTVRip от GeneralFilm | P2

3 | 10

546.22 МБ

В этой теме нет новых непрочитанных сообщений. Discovery. Уличные гонки / Street Outlaws [04х01 из 10] (2014) HDTVRip от GeneralFilm | P2

12 | 5

1.59 ГБ




Вы не можете начинать темы
Вы не можете отвечать на сообщения
Вы не можете редактировать свои сообщения
Вы не можете удалять свои сообщения
Вы не можете добавлять вложения

Перейти:  
Для Мосгорсуда, Роскомнадзора и рекламодателей: mosgorsud-torrent[собачка]yandex.ru
 Вход
ppkBB3cker v.2 © 2008-2014 @ PPK
[ Time : 0.055s | 14 Queries | GZIP : Off ]

Торрент трекер RUTOR.IN, Не можете зайти на rutor.org? Какой новый адрес рутор? Какое зеркало рутор? Не работает rutor.org и зеркала? Тогда наш торрент специально для вас. Rutor.in неофициальное зеркало rutor. В случае если у Вас заблокирован rutor или вдруг Вы не можете на него зайти, то Вы без труда сможете скачать бесплатно и без рекламы последние новинки кино, игр, сериалов и прочего у нас, на Rutor.in. Не нужно использовать прокси, чтобы зайти на рутор, достаточно воспользоваться нашим ресурсом. Все новые фильмы, игры, сериалы, книги и музыка за 2013 и 2014 годы через торрент бесплатно. Скачивайте фильмы в хорошем качестве, игры для пк, xbox, playstation без регистрации. У нас вы найдете новые Зарубежные сериалы и Русские сериалы 2013, 2014, 2015 годов. Оставайтесь с нами, качайте любимые фильмы, игры, сериалы, книги и музыку.