img image001 image001 image001 image001 image001 image001 image001 image001 image001 image001 image001 image001 image001 image001 image001

Planets Sun Sun Sun
Статистика раздачи
Автор: Nickolas3434 | Размер: 840.86 МБ | Добавлен: 05 апр 2014
Раздают: 104    Качают: 69
Скачать торрент
Скачать торрент
Описание торрента

СообщениеДобавлено: 05 апр 2014 




Информация о фильме
Название: BBC: Horizon. Жизнь без старости / Don't Grow Old
Год выпуска: 2009
Жанр: Документальный, научно-популярный, исследование
Режиссер: Никки Стокли


Описание:
Уже многие сотни лет люди пытаются найти эликсир молодости. Выдающиеся открытия, слеланные в течение последних лет, позволяют сделать вывод о том, что старение- гибкий процесс, которым можно управлять. Сотрудники BBC Horizon беседуют с учеными, которые пытаются выяснить, что же такое старение и можно ли его предотвратить.


Продолжительность: ~ 00:58:35
Выпущено: , Великобритания
Перевод: Двухголосый закадровый (профессиональный) [Видеофильм ТВ]
Автор рипа: vsobbol
Файл
Формат: AVI
Качество: HDTVRip
Видео: XviD, ~1800 kb/s, 720 x 400
Аудио: MP3, 2ch., 192 kb/s

Формат : AVI
Формат/Информация : Audio Video Interleave
Размер файла : 841 Мбайт
Продолжительность : 58 м.
Общий поток : 2007 Кбит/сек
Программа кодирования : VirtualDubMod 1.5.10.3 | (build 2550/release)
Библиотека кодирования : VirtualDubMod build 2550/release
Видео
Идентификатор : 0
Формат : MPEG-4 Visual
Профиль формата : Advanced Simple@L5
Параметр BVOP формата : 1
Параметр QPel формата : Нет
Параметр GMC формата : Без точки перехода
Параметр матрицы формата : Default (H.263)
Идентификатор кодека : XVID
Идентификатор кодека/Подсказка : XviD
Продолжительность : 58 м.
Битрейт : 1805 Кбит/сек
Ширина : 720 пикселей
Высота : 400 пикселей
Соотношение сторон : 16:9
Частота кадров : 25,000 кадров/сек
Цветовое пространство : YUV
Субдискретизация насыщенности : 4:2:0
Битовая глубина : 8 бит
Тип развёртки : Прогрессивная
Метод сжатия : С потерями
Бит/(Пиксели*Кадры) : 0.251
Размер потока : 756 Мбайт (90%)
Библиотека кодирования : XviD 1.2.1 (UTC 2008-12-04)
Аудио
Идентификатор : 1
Формат : MPEG Audio
Версия формата : Version 1
Профиль формата : Layer 3
Идентификатор кодека : 55
Идентификатор кодека/Подсказка : MP3
Продолжительность : 58 м.
Вид битрейта : Постоянный
Битрейт : 192 Кбит/сек
Каналы : 2 канала
Частота : 48,0 КГц
Метод сжатия : С потерями
Размер потока : 80,4 Мбайт (10%)
Выравнивание : Соединение по промежуткам
Продолжительность промежутка : 40 мс. (1,00 видеокадр)
Время предзагрузки промежутка : 504 мс.
Библиотека кодирования : LAME3.99r
Настройки программы : -m s -V 4 -q 2 -lowpass 18.6 -b 192






   Похожие торренты   Торрент   Размер 
В этой теме нет новых непрочитанных сообщений. BBC: Horizon. Гибель океана? / Horizon. The Death of the Oceans? (2010) HDTVRip 720p | P1

32 | 41

1.98 ГБ

В этой теме нет новых непрочитанных сообщений. BBC. Horizon: Выжить в автокатастрофе / Horizon. Surviving a Car Crash (2011) HDTVRip 720p

223 | 11

1.81 ГБ

В этой теме нет новых непрочитанных сообщений. BBC Horizon. Миссия на Марс / BBC Horizon. Mission To Mars (2012) HDTVRip-AVC от F-Torrents

10 | 3

863.91 МБ

В этой теме нет новых непрочитанных сообщений. BBC: Horizon. В поисках бессмертия / Horizon. The Immortalist (2016) HDTVRip от Kaztorrents | P1

177 | 3

741.03 МБ

В этой теме нет новых непрочитанных сообщений. BBC Horizon: Что такое реальность? / BBC Horizon: What Is Reality ? (2011) HDTVRip-AVC от F-Torrents

54 | 2

850.4 МБ

В этой теме нет новых непрочитанных сообщений. BBC: Horizon. Откуда берутся гении? / Horizon. What Makes a Genius? (2011) HDTVRip 720p | P2

63 | 29

1.78 ГБ

В этой теме нет новых непрочитанных сообщений. BBC: Horizon. Электронные сигареты: чудо или угроза? / Horizon. E-Cigarettes: Miracle or Menace? (2016) HDTVRip от Kaztorrents | L1

495 | 13

803.15 МБ




Вы не можете начинать темы
Вы не можете отвечать на сообщения
Вы не можете редактировать свои сообщения
Вы не можете удалять свои сообщения
Вы не можете добавлять вложения

Перейти:  
Для Мосгорсуда, Роскомнадзора и рекламодателей: mosgorsud-torrent[собачка]yandex.ru
 Вход
ppkBB3cker v.2 © 2008-2014 @ PPK
[ Time : 0.601s | 14 Queries | GZIP : Off ]

Торрент трекер RUTOR.IN, Не можете зайти на rutor.org? Какой новый адрес рутор? Какое зеркало рутор? Не работает rutor.org и зеркала? Тогда наш торрент специально для вас. Rutor.in неофициальное зеркало rutor. В случае если у Вас заблокирован rutor или вдруг Вы не можете на него зайти, то Вы без труда сможете скачать бесплатно и без рекламы последние новинки кино, игр, сериалов и прочего у нас, на Rutor.in. Не нужно использовать прокси, чтобы зайти на рутор, достаточно воспользоваться нашим ресурсом. Все новые фильмы, игры, сериалы, книги и музыка за 2013 и 2014 годы через торрент бесплатно. Скачивайте фильмы в хорошем качестве, игры для пк, xbox, playstation без регистрации. У нас вы найдете новые Зарубежные сериалы и Русские сериалы 2013, 2014, 2015 годов. Оставайтесь с нами, качайте любимые фильмы, игры, сериалы, книги и музыку.