img image001 image001 image001 image001 image001 image001 image001 image001 image001 image001 image001 image001 image001 image001 image001

Planets Sun Sun Sun
Статистика раздачи
Автор: Nickolas3434 | Размер: 652.27 МБ | Добавлен: 07 апр 2014
Раздают: 235    Качают: 26
Скачать торрент
Скачать торрент
Описание торрента

СообщениеДобавлено: 07 апр 2014 

Информация о фильме
Название: Тайна гибели Пахтакора
Год выхода: 2005
Жанр: Документальный, история, расследование
Режиссер: Андрей Грачев
В ролях: Свидетели, очевидцы, участники

О фильме:
Столкновение двух Ту-134 над Днепродзержинском — авиационная катастрофа, произошедшая в субботу, 11 августа 1979 года, и ставшая одной из крупнейших в истории авиации.

В тот день в 13 часов 35 минут в небе в районе Днепродзержинска на высоте в 8400 метров столкнулись два Ту-134А компании Аэрофлот, в результате чего погибли все находившиеся на них 178 человек. По числу жертв эта авиакатастрофа в истории Украины и Ту-134 занимает первые места, в истории Советского Союза и столкновений в воздухе в мире — второе, а среди столкновений самолётов вообще — третье. Среди погибших оказались 17 членов узбекского футбольного клуба «Пахтакор», из-за чего трагедия получила особый резонанс.

Страна: Россия
Студия: НП Единая медиа группа
Продолжительность: 00:44:04
Перевод: Не требуется

Файл
Кодек: Xvid (FourCC заменен на DivX)
Качество: SATRip
Видео: 704х528, 1867 Kbps, 25.000 fps
Звук: AC3 2.0, 192 Kbps
Субтитры: Вшитые

Семпл
General
Complete name : L:Pshichko66Na zapis'Документальный фильмыGibel' komandy Pahtakor.avi
Format : AVI
Format/Info : Audio Video Interleave
File size : 652 MiB
Duration : 44mn 4s
Overall bit rate : 2 069 Kbps
Writing application : VirtualDubMod 1.5.10.2 (build 2540/release)
Writing library : VirtualDubMod build 2540/release

Video
ID : 0
Format : MPEG-4 Visual
Format profile : Advanced Simple@L5
Format settings, BVOP : 1
Format settings, QPel : No
Format settings, GMC : No warppoints
Format settings, Matrix : Default (MPEG)
Codec ID : DIVX
Codec ID/Info : Project Mayo
Codec ID/Hint : DivX 4
Duration : 44mn 4s
Bit rate : 1 867 Kbps
Width : 704 pixels
Height : 528 pixels
Display aspect ratio : 4:3
Frame rate : 25.000 fps
Color space : YUV
Chroma subsampling : 4:2:0
Bit depth : 8 bits
Scan type : Progressive
Compression mode : Lossy
Bits/(Pixel*Frame) : 0.201
Stream size : 589 MiB (90%)
Writing library : XviD 64

Audio
ID : 1
Format : AC-3
Format/Info : Audio Coding 3
Mode extension : CM (complete main)
Format settings, Endianness : Big
Codec ID : 2000
Duration : 44mn 4s
Bit rate mode : Constant
Bit rate : 192 Kbps
Channel count : 2 channels
Channel positions : Front: L R
Sampling rate : 48.0 KHz
Bit depth : 16 bits
Compression mode : Lossy
Stream size : 60.5 MiB (9%)
Alignment : Split accross interleaves
Interleave, duration : 40 ms (1.00 video frame)
Interleave, preload duration : 500 ms



Релиз от: Pshichko66



   Похожие торренты   Торрент   Размер 
В этой теме нет новых непрочитанных сообщений. Тайна гибели "Пахтакора" (2005) TVRip от Pshichko66

196 | 15

647.61 МБ

В этой теме нет новых непрочитанных сообщений. Тайна гибели дирижабля "Гинденбург" (2008) SATRip от Pshichko66

15 | 0

501.38 МБ

В этой теме нет новых непрочитанных сообщений. Тайна гибели «Титаника» (2008) SATRip RG.MixTorrent

5 | 4

566.07 МБ

В этой теме нет новых непрочитанных сообщений. Тайна убийства Александра Меня (2005) IPTVRip от Pshichko66

0 | 0

651.14 МБ

В этой теме нет новых непрочитанных сообщений. Тайна гибели самолета «Максим Горький» (2000) TVRip

4 | 4

645.97 МБ

В этой теме нет новых непрочитанных сообщений. Тайна катастрофы на Волге. Роковой круиз (2006) SATRip от Pshichko66

121 | 79

651.88 МБ

В этой теме нет новых непрочитанных сообщений. Моссад (2005) SATRip от Pshichko66

192 | 24

652 МБ




Вы не можете начинать темы
Вы не можете отвечать на сообщения
Вы не можете редактировать свои сообщения
Вы не можете удалять свои сообщения
Вы не можете добавлять вложения

Перейти:  
Для Мосгорсуда, Роскомнадзора и рекламодателей: mosgorsud-torrent[собачка]yandex.ru
 Вход
ppkBB3cker v.2 © 2008-2014 @ PPK
[ Time : 0.039s | 18 Queries | GZIP : Off ]

cron