img image001 image001 image001 image001 image001 image001 image001 image001 image001 image001 image001 image001 image001 image001 image001

Planets Sun Sun Sun
Статистика раздачи
Автор: Nickolas3434 | Размер: 513.66 МБ | Добавлен: 07 апр 2014
Раздают: 322    Качают: 30
Скачать торрент
Скачать торрент
Описание торрента

СообщениеДобавлено: 07 апр 2014 




Информация о фильме
Название: Discovery: Реальные дальнобойщики / Outback Truckers
Год выпуска: 2013
Жанр: Документальный, приключения
Режиссер: Роланд Смит
В ролях: Стив Грэм, Стив Рид, Дэнни Уотс, Джеф "Блюзи" Бэрроу, Нойлин Тёрнер


Описание:
Программа «Реальные дальнобойщики» возвращается на Discovery Channel со вторым сезоном автомобильных приключений! Вы узнаете много нового о повседневной жизни героев, управляющих самыми большими, тяжелыми и неповоротливыми автомобилями на свете. Каждый день они борются с разнообразными дорожными испытаниями в надежде доставить груз вовремя. Неожиданные поломки, агрессивно настроенные дикие животные, пожары и даже наводнения – лишь малая часть бед, угрожающих сохранности ценного груза. Однако героев программы точно нельзя назвать новичками в деле грузоперевозок – каждый из них готов рискнуть многим, чтобы достигнуть пункта назначения в срок.


Легендарный дальнобойщик Стив Грэм везет оборудование стоимостью три миллиона долларов для энергоснабжения изолированного поселения Калумбуру в штате Западная Австралия.


Продолжительность: ~ 00:43:52
Выпущено:
Перевод: Профессиональный (одноголосый, закадровый)
Автор рипа: vn_tuzhilin
Файл
Формат: AVI
Качество: SATRip
Видео: XviD, ~1500 kb/s, 704 x 400
Аудио: MP3, 2.0ch., 128 kb/s

Формат : AVI
Формат/Информация : Audio Video Interleave
Размер файла : 514 Мбайт
Продолжительность : 43 м.
Общий поток : 1637 Кбит/сек
Программа кодирования : VirtualDubMod 1.5.10.2 (build 2540/release)
Библиотека кодирования : VirtualDubMod build 2540/release
Видео
Идентификатор : 0
Формат : MPEG-4 Visual
Профиль формата : Advanced Simple@L5
Параметр BVOP формата : 1
Параметр QPel формата : Нет
Параметр GMC формата : Без точки перехода
Параметр матрицы формата : Default (H.263)
Идентификатор кодека : XVID
Идентификатор кодека/Подсказка : XviD
Продолжительность : 43 м.
Битрейт : 1499 Кбит/сек
Ширина : 704 пикселя
Высота : 400 пикселей
Соотношение сторон : 16:9
Частота кадров : 25,000 кадров/сек
Цветовое пространство : YUV
Субдискретизация насыщенности : 4:2:0
Битовая глубина : 8 бит
Тип развёртки : Прогрессивная
Метод сжатия : С потерями
Бит/(Пиксели*Кадры) : 0.213
Размер потока : 470 Мбайт (92%)
Библиотека кодирования : XviD 1.2.1 (UTC 2008-12-04)
Аудио
Идентификатор : 1
Формат : MPEG Audio
Версия формата : Version 1
Профиль формата : Layer 3
Идентификатор кодека : 55
Идентификатор кодека/Подсказка : MP3
Продолжительность : 43 м.
Вид битрейта : Постоянный
Битрейт : 128 Кбит/сек
Каналы : 2 канала
Частота : 44,1 КГц
Метод сжатия : С потерями
Размер потока : 40,2 Мбайт (8%)
Выравнивание : Разделение по промежуткам
Продолжительность промежутка : 40 мс. (1,00 видеокадр)
Время предзагрузки промежутка : 500 мс.
Библиотека кодирования : LAME3.98r
Настройки программы : -m s -V 4 -q 2 -lowpass 17 -b 128






   Похожие торренты   Торрент   Размер 
В этой теме нет новых непрочитанных сообщений. Discovery. Реальные дальнобойщики / Discovery. Outback Truckers [03х01] (2014) HDTVRip от GeneralFilm | D

7 | 5

2.14 ГБ

В этой теме нет новых непрочитанных сообщений. Discovery. Реальные дальнобойщики / Discovery. Outback Truckers [03х01] (2014) HDTVRip от GeneralFilm | D

22 | 26

3.21 ГБ

В этой теме нет новых непрочитанных сообщений. Discovery. Реальные дальнобойщики / Discovery. Outback Truckers [03х01] (2014) HDTVRip от GeneralFilm | D

50 | 22

2.67 ГБ

В этой теме нет новых непрочитанных сообщений. Discovery. Реальные дальнобойщики / Discovery. Outback Truckers [03х01] (2014) HDTVRip от GeneralFilm | D

10 | 6

1.07 ГБ

В этой теме нет новых непрочитанных сообщений. Discovery. Реальные дальнобойщики / Discovery. Outback Truckers [03х01] (2014) HDTVRip от GeneralFilm | D

114 | 53

546.72 МБ

В этой теме нет новых непрочитанных сообщений. Discovery. Реальные дальнобойщики / Discovery. Outback Truckers [03х01] (2014) HDTVRip от GeneralFilm | D

15 | 16

1.6 ГБ

В этой теме нет новых непрочитанных сообщений. Реальные дальнобойщики / Discovery: Outback Truckers [04х01] (2016) HDTVRip от GeneralFilm | D

10 | 13

4.28 ГБ




Вы не можете начинать темы
Вы не можете отвечать на сообщения
Вы не можете редактировать свои сообщения
Вы не можете удалять свои сообщения
Вы не можете добавлять вложения

Перейти:  
Для Мосгорсуда, Роскомнадзора и рекламодателей: mosgorsud-torrent[собачка]yandex.ru
 Вход
ppkBB3cker v.2 © 2008-2014 @ PPK
[ Time : 0.073s | 14 Queries | GZIP : Off ]

Торрент трекер RUTOR.IN, Не можете зайти на rutor.org? Какой новый адрес рутор? Какое зеркало рутор? Не работает rutor.org и зеркала? Тогда наш торрент специально для вас. Rutor.in неофициальное зеркало rutor. В случае если у Вас заблокирован rutor или вдруг Вы не можете на него зайти, то Вы без труда сможете скачать бесплатно и без рекламы последние новинки кино, игр, сериалов и прочего у нас, на Rutor.in. Не нужно использовать прокси, чтобы зайти на рутор, достаточно воспользоваться нашим ресурсом. Все новые фильмы, игры, сериалы, книги и музыка за 2013 и 2014 годы через торрент бесплатно. Скачивайте фильмы в хорошем качестве, игры для пк, xbox, playstation без регистрации. У нас вы найдете новые Зарубежные сериалы и Русские сериалы 2013, 2014, 2015 годов. Оставайтесь с нами, качайте любимые фильмы, игры, сериалы, книги и музыку.