img image001 image001 image001 image001 image001 image001 image001 image001 image001 image001 image001 image001 image001 image001 image001

Planets Sun Sun Sun
Статистика раздачи
Автор: Nickolas3434 | Размер: 1.66 ГБ | Добавлен: 08 апр 2014
Раздают: 103    Качают: 28
Скачать торрент
Скачать торрент
Описание торрента

СообщениеДобавлено: 08 апр 2014 




Информация о фильме
Название: BBC: Порядок и Разупорядоченность / Order and Disorder
Год выпуска: 2012
Жанр: Документальный
Режиссер: Ник Стейси
Участник: Джим Аль-Халили


Описание:
Профессор Джим Аль-Халили совершая экскурс в историю пытается разобраться в том, что такое энергия и информация, а так же о той значимости, которую они играют не только для человечества, но и для всей Вселенной в целом.


01. Энергия / Energy
Джим Аль-Халили рассказывает захватывающую историю о том, как мы открыли для себя законы, которые управляют нашей Вселенной. Энергия жизненно необходима для всех нас, но что это такое на самом деле? Пытаясь найти ответ на этот вопрос, он исследует странные закономерности, которые связывают между собой абсолютно всё, начиная механизмами и живыми существами и заканчивая звездами.
02. Информация / Information
Джим показывает нам, как человечество научилось использовать символы, начиная с изобретения письменности до современных цифровых технологий. Важно то, что информация- это не только продукт коммуникации людей между собой, она тесно вплетена в ткань окружающей нас реальности.


Продолжительность: 02 х ~00:59:00
Выпущено: , Великобритания
Перевод: Одноголосый закадровый, любительский [Logos71, Юрий Онишенко]
Язык субтитров: Русские
Вид субтитров: Вшитые
Файл
Формат: AVI
Качество: HDTVRip
Видео: XviD, ~25.00fps 1800kbps, 720 x 400
Аудио: AC3, 48000Hz stereo 192kbps

Формат : AVI
Формат/Информация : Audio Video Interleave
Размер файла : 849 Мбайт
Продолжительность : 59 м.
Общий поток : 2002 Кбит/сек
Программа кодирования : VirtualDubMod 1.5.10.3 | (build 2550/release)
Библиотека кодирования : VirtualDubMod build 2550/release
Видео
Идентификатор : 0
Формат : MPEG-4 Visual
Профиль формата : Advanced Simple@L5
Параметр BVOP формата : 3
Параметр QPel формата : Да
Параметр GMC формата : 3 точки перехода
Параметр матрицы формата : Default (H.263)
Идентификатор кодека : XVID
Идентификатор кодека/Подсказка : XviD
Продолжительность : 59 м.
Битрейт : 1800 Кбит/сек
Ширина : 720 пикс.
Высота : 400 пикс.
Соотношение сторон : 16:9
Частота кадров : 25,000 кадр/сек
Цветовое пространство : YUV
Подвыборка цветности : 4:2:0
Битовая глубина : 8 бит
Тип развёртки : Прогрессивная
Метод сжатия : С потерями
Бит/(Пиксели*Кадры) : 0.250
Размер потока : 763 Мбайт (90%)
Библиотека кодирования : XviD 1.2.1 (UTC 2008-12-04)
Аудио
Идентификатор : 1
Формат : AC-3
Формат/Информация : Audio Coding 3
Расширение режима : CM (complete main)
Идентификатор кодека : 2000
Продолжительность : 59 м.
Вид битрейта : Постоянный
Битрейт : 192 Кбит/сек
Канал(ы) : 2 канала(ов)
Расположение каналов : Front: L R
Частота : 48,0 КГц
Битовая глубина : 16 бит
Метод сжатия : С потерями
Размер потока : 81,4 Мбайт (10%)
Выравнивание : Разделение по промежуткам
Продолжительность промежутка : 40 мс. (1,00 видеокадр)
Время предзагрузки промежутка : 500 ms
Общее
Полное имя : D:BBC_Order_and_Disorder\02_Information.avi
Формат : AVI
Формат/Информация : Audio Video Interleave
Размер файла : 846 Мбайт
Продолжительность : 59 м.
Общий поток : 2002 Кбит/сек
Программа кодирования : VirtualDubMod 1.5.10.3 | (build 2550/release)
Библиотека кодирования : VirtualDubMod build 2550/release
Видео
Идентификатор : 0
Формат : MPEG-4 Visual
Профиль формата : Advanced Simple@L5
Параметр BVOP формата : 3
Параметр QPel формата : Да
Параметр GMC формата : 3 точки перехода
Параметр матрицы формата : Default (H.263)
Идентификатор кодека : XVID
Идентификатор кодека/Подсказка : XviD
Продолжительность : 59 м.
Битрейт : 1800 Кбит/сек
Ширина : 720 пикс.
Высота : 400 пикс.
Соотношение сторон : 16:9
Частота кадров : 25,000 кадр/сек
Цветовое пространство : YUV
Подвыборка цветности : 4:2:0
Битовая глубина : 8 бит
Тип развёртки : Прогрессивная
Метод сжатия : С потерями
Бит/(Пиксели*Кадры) : 0.250
Размер потока : 761 Мбайт (90%)
Библиотека кодирования : XviD 1.2.1 (UTC 2008-12-04)
Аудио
Идентификатор : 1
Формат : AC-3
Формат/Информация : Audio Coding 3
Расширение режима : CM (complete main)
Идентификатор кодека : 2000
Продолжительность : 59 м.
Вид битрейта : Постоянный
Битрейт : 192 Кбит/сек
Канал(ы) : 2 канала(ов)
Расположение каналов : Front: L R
Частота : 48,0 КГц
Битовая глубина : 16 бит
Метод сжатия : С потерями
Размер потока : 81,2 Мбайт (10%)
Выравнивание : Разделение по промежуткам
Продолжительность промежутка : 40 мс. (1,00 видеокадр)
Время предзагрузки промежутка : 500 ms







   Похожие торренты   Торрент   Размер 
В этой теме нет новых непрочитанных сообщений. Закон и порядок: Специальный корпус / Law & Order: Special Victims Unit [S13] (2011-2012) HDTVRip | DexterTV

16 | 9

11.17 ГБ

В этой теме нет новых непрочитанных сообщений. Закон и порядок: Суд присяжных / Law & Order: Trial by Jury [S01] (2005) HDTVRip | P

5 | 1

4.01 ГБ

В этой теме нет новых непрочитанных сообщений. Закон и порядок: Специальный корпус / Law & Order: SVU [10x01-04] (2008) HDTVRip

0 | 2

1.52 ГБ

В этой теме нет новых непрочитанных сообщений. Закон и порядок: Специальный корпус / Law & Order: Special Victims Unit [10x01] (2008) HDTVRip | L2

0 | 1

390.5 МБ

В этой теме нет новых непрочитанных сообщений. Закон и порядок: Специальный корпус / Law & Order: Special Victims Unit [10x05] (2008) HDTVRip | L2

0 | 2

389.48 МБ

В этой теме нет новых непрочитанных сообщений. Закон и порядок: Специальный корпус / Law & Order: Special Victims Unit [10x03] (2008) HDTVRip | L2

0 | 2

390.31 МБ

В этой теме нет новых непрочитанных сообщений. Закон и порядок: Специальный корпус / Law & Order: Special Victims Unit [10x02] (2008) HDTVRip | L2

0 | 3

390.2 МБ




Вы не можете начинать темы
Вы не можете отвечать на сообщения
Вы не можете редактировать свои сообщения
Вы не можете удалять свои сообщения
Вы не можете добавлять вложения

Перейти:  
Для Мосгорсуда, Роскомнадзора и рекламодателей: mosgorsud-torrent[собачка]yandex.ru
 Вход
ppkBB3cker v.2 © 2008-2014 @ PPK
[ Time : 1.503s | 14 Queries | GZIP : Off ]

Торрент трекер RUTOR.IN, Не можете зайти на rutor.org? Какой новый адрес рутор? Какое зеркало рутор? Не работает rutor.org и зеркала? Тогда наш торрент специально для вас. Rutor.in неофициальное зеркало rutor. В случае если у Вас заблокирован rutor или вдруг Вы не можете на него зайти, то Вы без труда сможете скачать бесплатно и без рекламы последние новинки кино, игр, сериалов и прочего у нас, на Rutor.in. Не нужно использовать прокси, чтобы зайти на рутор, достаточно воспользоваться нашим ресурсом. Все новые фильмы, игры, сериалы, книги и музыка за 2013 и 2014 годы через торрент бесплатно. Скачивайте фильмы в хорошем качестве, игры для пк, xbox, playstation без регистрации. У нас вы найдете новые Зарубежные сериалы и Русские сериалы 2013, 2014, 2015 годов. Оставайтесь с нами, качайте любимые фильмы, игры, сериалы, книги и музыку.