img image001 image001 image001 image001 image001 image001 image001 image001 image001 image001 image001 image001 image001 image001 image001

Planets Sun Sun Sun
Статистика раздачи
Автор: Nickolas3434 | Размер: 501.3 МБ | Добавлен: 14 апр 2014
Раздают: 4    Качают: 47
Скачать торрент
Скачать торрент
Описание торрента

СообщениеДобавлено: 14 апр 2014 

Информация о фильме
Название: Александр Фадеев. Выстрел в Партию.
Год выхода: 2008
Жанр: Документальный, история, биогафия
Режиссер: Владимир Мелетин
В ролях: Участники событий, писатели, публицисты.

О фильме:
Александр Фадеев выстрелил в себя 13 мая 1956 года. После ХХ съезда партии это было единственное самоубийство в литературных и партийных верхах. Положение усугублялось тем, что перед самоубийством Фадеев "обратился наверх", написав письмо с адресом "В ЦК КПСС".
Страна: Россия
Студия: Арт Нуво Студия
Продолжительность: 00:38:38
Перевод: Не требуется

Файл
Кодек: Xvid (FourCC заменен на DivX)
Качество: SATRip
Видео: 640х480, 1612 Kbps, 25.000 fps
Звук: AC3 2.0, 192 Kbps
Семпл



General
Complete name : L:Pshichko66Na zapis'Документальный фильмыAleksandr Fadeev. Vystrel v partiyu..avi
Format : AVI
Format/Info : Audio Video Interleave
File size : 501 MiB
Duration : 38mn 38s
Overall bit rate : 1 814 Kbps
Writing application : VirtualDubMod 1.5.10.2 (build 2540/release)
Writing library : VirtualDubMod build 2540/release

Video
ID : 0
Format : MPEG-4 Visual
Format profile : Advanced Simple@L5
Format settings, BVOP : 1
Format settings, QPel : No
Format settings, GMC : No warppoints
Format settings, Matrix : Default (MPEG)
Codec ID : DIVX
Codec ID/Info : Project Mayo
Codec ID/Hint : DivX 4
Duration : 38mn 38s
Bit rate : 1 612 Kbps
Width : 640 pixels
Height : 480 pixels
Display aspect ratio : 4:3
Frame rate : 25.000 fps
Color space : YUV
Chroma subsampling : 4:2:0
Bit depth : 8 bits
Scan type : Progressive
Compression mode : Lossy
Bits/(Pixel*Frame) : 0.210
Stream size : 446 MiB (89%)
Writing library : XviD 64

Audio
ID : 1
Format : AC-3
Format/Info : Audio Coding 3
Mode extension : CM (complete main)
Format settings, Endianness : Big
Codec ID : 2000
Duration : 38mn 38s
Bit rate mode : Constant
Bit rate : 192 Kbps
Channel count : 2 channels
Channel positions : Front: L R
Sampling rate : 48.0 KHz
Bit depth : 16 bits
Compression mode : Lossy
Delay relative to video : 6ms
Stream size : 53.1 MiB (11%)
Alignment : Split accross interleaves
Interleave, duration : 40 ms (1.00 video frame)
Interleave, preload duration : 500 ms


Релиз от: Pshichko66



   Похожие торренты   Торрент   Размер 
В этой теме нет новых непрочитанных сообщений. Выстрел в спину (1979) SATRip от Pshichko66

89 | 15

1.37 ГБ

В этой теме нет новых непрочитанных сообщений. Предупредительный выстрел / Warning Shot (1967) IPTVRip от Pshichko66

134 | 14

1.45 ГБ

В этой теме нет новых непрочитанных сообщений. Нечистая сила (2008) SATRip от Pshichko66

109 | 3

500.84 МБ

В этой теме нет новых непрочитанных сообщений. Десять негритят Никиты Хрущёва (2008) SATRip от Pshichko66

173 | 16

501.24 МБ

В этой теме нет новых непрочитанных сообщений. Кремлевские похороны. Лаврентий Берия (2008) SATRip от Pshichko66

179 | 34

652.46 МБ

В этой теме нет новых непрочитанных сообщений. Забытый вождь. Александр Керенский (2012) IPTVRemux от Pshichko66

56 | 2

867.83 МБ

В этой теме нет новых непрочитанных сообщений. Александр Великий / Alexander der Große (2014) IPTVRip от Pshichko66

15 | 0

1.36 ГБ




Вы не можете начинать темы
Вы не можете отвечать на сообщения
Вы не можете редактировать свои сообщения
Вы не можете удалять свои сообщения
Вы не можете добавлять вложения

Перейти:  
Для Мосгорсуда, Роскомнадзора и рекламодателей: mosgorsud-torrent[собачка]yandex.ru
 Вход
ppkBB3cker v.2 © 2008-2014 @ PPK
[ Time : 0.281s | 15 Queries | GZIP : On ]

Торрент трекер RUTOR.IN, Не можете зайти на rutor.org? Какой новый адрес рутор? Какое зеркало рутор? Не работает rutor.org и зеркала? Тогда наш торрент специально для вас. Rutor.in неофициальное зеркало rutor. В случае если у Вас заблокирован rutor или вдруг Вы не можете на него зайти, то Вы без труда сможете скачать бесплатно и без рекламы последние новинки кино, игр, сериалов и прочего у нас, на Rutor.in. Не нужно использовать прокси, чтобы зайти на рутор, достаточно воспользоваться нашим ресурсом. Все новые фильмы, игры, сериалы, книги и музыка за 2013 и 2014 годы через торрент бесплатно. Скачивайте фильмы в хорошем качестве, игры для пк, xbox, playstation без регистрации. У нас вы найдете новые Зарубежные сериалы и Русские сериалы 2013, 2014, 2015 годов. Оставайтесь с нами, качайте любимые фильмы, игры, сериалы, книги и музыку.