img image001 image001 image001 image001 image001 image001 image001 image001 image001 image001 image001 image001 image001 image001 image001

Planets Sun Sun Sun
Статистика раздачи
Автор: Nickolas3434 | Размер: 699.6 МБ | Добавлен: 28 апр 2014
Раздают: 21    Качают: 8
Скачать торрент
Скачать торрент
Описание торрента

СообщениеДобавлено: 28 апр 2014 

Бойцовский клуб для леопарда
Leopard Fight Club




Год выпуска: 2013
Страна: США
Жанр: Документальный
Продолжительность: 00:43:40
Перевод: Профессиональный (дублированный) | Михаил Тихонов / АРК·ТВ
Русские субтитры: нет


Режиссер: Ян Лампен / Jan Lampen

Описание: Перед вами удивительная история леопарда, за четыре года превратившегося из котёнка в гордое и сильное животное. История увидена глазами бабуина, охраняющего стаю.


Автор рипа: Leo.pard
Исходник: HDTV 1080i


Kачество: HDTVRip
Формат: AVI
Видео: XviD, 720x400 (16:9), 1846 Kbps, 25 fps
Аудио: AC3, 384 Kbps, 48 KHz, 6 channels

Сэмпл: http://multi-up.com/969945

General
Complete name : D:Bojcovskij.klub.dlja.leoparda.2013.HDTVRip.avi
Format : AVI
Format/Info : Audio Video Interleave
File size : 700 MiB
Duration : 43mn 40s
Overall bit rate : 2 240 Kbps
Writing application : VirtualDubMod 1.5.10.3 | www.virtualdub-fr.org || (build 2550/release)
Writing library : VirtualDubMod build 2550/release

Video
ID : 0
Format : MPEG-4 Visual
Format profile : Advanced Simple@L5
Format settings, BVOP : 1
Format settings, QPel : No
Format settings, GMC : No warppoints
Format settings, Matrix : Custom
Codec ID : XVID
Codec ID/Hint : XviD
Duration : 43mn 40s
Bit rate : 1 846 Kbps
Width : 720 pixels
Height : 400 pixels
Display aspect ratio : 16:9
Frame rate : 25.000 fps
Color space : YUV
Chroma subsampling : 4:2:0
Bit depth : 8 bits
Scan type : Progressive
Compression mode : Lossy
Bits/(Pixel*Frame) : 0.256
Stream size : 577 MiB (82%)
Writing library : XviD 73

Audio
ID : 1
Format : AC-3
Format/Info : Audio Coding 3
Mode extension : CM (complete main)
Format settings, Endianness : Big
Codec ID : 2000
Duration : 43mn 40s
Bit rate mode : Constant
Bit rate : 384 Kbps
Channel(s) : 6 channels
Channel positions : Front: L C R, Side: L R, LFE
Sampling rate : 48.0 KHz
Bit depth : 16 bits
Compression mode : Lossy
Stream size : 120 MiB (17%)
Alignment : Split accross interleaves
Interleave, duration : 40 ms (1.00 video frame)
Interleave, preload duration : 500 ms







   Похожие торренты   Торрент   Размер 
В этой теме нет новых непрочитанных сообщений. Бойцовский клуб для леопарда / Leopard Fight Club (2013) HDTVRip-AVC от Leo.pard | D

47 | 13

699.97 МБ

В этой теме нет новых непрочитанных сообщений. Бойцовский клуб для животных / Animal Fight Club [S01] (2013) HDTVRip от bittracker

53 | 6

1.45 ГБ

В этой теме нет новых непрочитанных сообщений. Бойцовский клуб / Fight Club (1999) HDTVRip от Scarabey

2694 | 64

1.45 ГБ

В этой теме нет новых непрочитанных сообщений. Бойцовский клуб / Fight Club (1999) HDTVRip 720p от MediaClub | D, P, A

84 | 15

8.84 ГБ

В этой теме нет новых непрочитанных сообщений. Бойцовский клуб / Fight Club (1999) HDTVRip 1080p от MediaClub | D, P, A

63 | 15

20.42 ГБ

В этой теме нет новых непрочитанных сообщений. Бойцовский клуб для животных / Animal Fight Club [S02] (2014) HDTVRip от bittracker

92 | 36

1.45 ГБ

В этой теме нет новых непрочитанных сообщений. Бойцовский Клуб / Fight Club (1999) HDTVRip 1080p | Open Matte

596 | 9

15.78 ГБ




Вы не можете начинать темы
Вы не можете отвечать на сообщения
Вы не можете редактировать свои сообщения
Вы не можете удалять свои сообщения
Вы не можете добавлять вложения

Перейти:  
Для Мосгорсуда, Роскомнадзора и рекламодателей: mosgorsud-torrent[собачка]yandex.ru
 Вход
ppkBB3cker v.2 © 2008-2014 @ PPK
[ Time : 0.033s | 16 Queries | GZIP : Off ]

cron