img image001 image001 image001 image001 image001 image001 image001 image001 image001 image001 image001 image001 image001 image001 image001

Planets Sun Sun Sun
Статистика раздачи
Автор: Nickolas3434 | Размер: 699.97 МБ | Добавлен: 04 май 2014
Раздают: 9    Качают: 6
Скачать торрент
Скачать торрент
Описание торрента

СообщениеДобавлено: 04 май 2014 

Королева-львица
The Real Lion Queen




Год выпуска: 2013
Страна: США
Жанр: Документальный
Продолжительность: 00:43:55
Перевод: Профессиональный (дублированный) Михаил Тихонов / АРК·ТВ
Интервью и комментарии - Профессиональный (одноголосый закадровый)
Русские субтитры: нет


Режиссер: Ян Лампен / Jan Lampen

Описание: Всего за 50 лет охотники уничтожили всю популяцию львов в долине Лиува в Замбии. Но выяснилось, что одна львица выжила. Неужели есть шанс всё исправить?


Автор рипа: Leo.pard
Исходник: HDTV 1080i


Kачество: HDTVRip
Формат: AVI
Видео: XviD, 720x400 (16:9), 1834 Kbps, 25 fps
Аудио: AC3, 384 Kbps, 48 KHz, 6 channels

Сэмпл: http://multi-up.com/971449

General
Complete name : D:Koroleva-lvica.2013.HDTVRip.avi
Format : AVI
Format/Info : Audio Video Interleave
File size : 700 MiB
Duration : 43mn 55s
Overall bit rate : 2 228 Kbps
Writing application : VirtualDubMod 1.5.10.3 | www.virtualdub-fr.org || (build 2550/release)
Writing library : VirtualDubMod build 2550/release

Video
ID : 0
Format : MPEG-4 Visual
Format profile : Advanced Simple@L5
Format settings, BVOP : 1
Format settings, QPel : No
Format settings, GMC : No warppoints
Format settings, Matrix : Custom
Codec ID : XVID
Codec ID/Hint : XviD
Duration : 43mn 55s
Bit rate : 1 834 Kbps
Width : 720 pixels
Height : 400 pixels
Display aspect ratio : 16:9
Frame rate : 25.000 fps
Color space : YUV
Chroma subsampling : 4:2:0
Bit depth : 8 bits
Scan type : Progressive
Compression mode : Lossy
Bits/(Pixel*Frame) : 0.255
Stream size : 576 MiB (82%)
Writing library : XviD 73

Audio
ID : 1
Format : AC-3
Format/Info : Audio Coding 3
Mode extension : CM (complete main)
Format settings, Endianness : Big
Codec ID : 2000
Duration : 43mn 55s
Bit rate mode : Constant
Bit rate : 384 Kbps
Channel(s) : 6 channels
Channel positions : Front: L C R, Side: L R, LFE
Sampling rate : 48.0 KHz
Bit depth : 16 bits
Compression mode : Lossy
Stream size : 121 MiB (17%)
Alignment : Split accross interleaves
Interleave, duration : 40 ms (1.00 video frame)
Interleave, preload duration : 500 ms







   Похожие торренты   Торрент   Размер 
В этой теме нет новых непрочитанных сообщений. Королева-львица / The Real Lion Queen (2013) HDTVRip-AVC от Leo.pard | D

41 | 13

700.37 МБ

В этой теме нет новых непрочитанных сообщений. Королева - львица. Великое наследие / Queen - a lioness. Great legacy (2012) HDTVRip-AVC от ExKinoRay

4 | 8

1.23 ГБ

В этой теме нет новых непрочитанных сообщений. Королева - львица. Великое наследие / Queen - a lioness. Great legacy (2012) HDTVRip от ExKinoRay

9 | 4

700.48 МБ

В этой теме нет новых непрочитанных сообщений. Королева - львица. Воительница равнин / Queen - a lioness. Warrior plains (2009) HDTVRip от ExKinoRay

8 | 5

700.29 МБ

В этой теме нет новых непрочитанных сообщений. Королева - львица. Воительница равнин / Queen - a lioness. Warrior plains (2009) HDTVRip-AVC от ExKinoRay

7 | 16

1.2 ГБ

В этой теме нет новых непрочитанных сообщений. Animal Planet. Королева львов / The Lion Queen [01-05] (2015) HDTVRip от GeneralFilm | P1

1 | 2

2.63 ГБ

В этой теме нет новых непрочитанных сообщений. Animal Planet. Королева львов / The Lion Queen [01-06 из 06] (2015) HDTVRip от GeneralFilm | P1

20 | 7

3.16 ГБ




Вы не можете начинать темы
Вы не можете отвечать на сообщения
Вы не можете редактировать свои сообщения
Вы не можете удалять свои сообщения
Вы не можете добавлять вложения

Перейти:  
Для Мосгорсуда, Роскомнадзора и рекламодателей: mosgorsud-torrent[собачка]yandex.ru
 Вход
ppkBB3cker v.2 © 2008-2014 @ PPK
[ Time : 0.057s | 15 Queries | GZIP : Off ]

Торрент трекер RUTOR.IN, Не можете зайти на rutor.org? Какой новый адрес рутор? Какое зеркало рутор? Не работает rutor.org и зеркала? Тогда наш торрент специально для вас. Rutor.in неофициальное зеркало rutor. В случае если у Вас заблокирован rutor или вдруг Вы не можете на него зайти, то Вы без труда сможете скачать бесплатно и без рекламы последние новинки кино, игр, сериалов и прочего у нас, на Rutor.in. Не нужно использовать прокси, чтобы зайти на рутор, достаточно воспользоваться нашим ресурсом. Все новые фильмы, игры, сериалы, книги и музыка за 2013 и 2014 годы через торрент бесплатно. Скачивайте фильмы в хорошем качестве, игры для пк, xbox, playstation без регистрации. У нас вы найдете новые Зарубежные сериалы и Русские сериалы 2013, 2014, 2015 годов. Оставайтесь с нами, качайте любимые фильмы, игры, сериалы, книги и музыку.