img image001 image001 image001 image001 image001 image001 image001 image001 image001 image001 image001 image001 image001 image001 image001

Planets Sun Sun Sun
Статистика раздачи
Автор: Nickolas3434 | Размер: 8.2 ГБ | Добавлен: 25 май 2014
Раздают: 41    Качают: 16
Скачать торрент
Скачать торрент
Описание торрента

СообщениеДобавлено: 25 май 2014 

Название: Дикая Арктика
Оригинальное название: Wildest Arctic
Год выхода: 2012
Жанр: Документальный, флора, фауна, путешествие
Выпущено: США / Off the Fence Production, Oasis HD, Discovery Networks International

О фильме: Четыре поры года, четыре серии, одна удивительнее другой. Сериал «Дикая Арктика» исследует четыре экстремальных района Арктики и даёт возможность ознакомиться с жизнью животных, которые пытаются выжить в этих невероятных местах обитания. Камеры снимают жизнь животных на протяжении 12 месяцев в занесённых снегом лесах тайги, где произрастает треть всех деревьев на планете. Они также исследуют арктическую тундру, одно из самых холодных и сухих мест на планете, которое стало домом для сотен тысяч оленей. В последующих эпизодах Вы увидите, что собой представляет жизнь за полярным кругом для белых медведей и китов. Вы также побываете в Исландии, стране с удивительным ландшафтом и выносливой дикой природой.

Качество: BDRip 720p
Видео: MPEG-4 AVC, ~5850 Кбит/с, 1280x720, 25.000 кадр/с
Аудио #1: Русский (AC3, 6 ch, 384 Кбит/с) / Дублированный
Аудио #2: Английский (AC3, 6 ch, 448 Кбит/с)
Продолжительность: 4 х ~ 00:44:00
1. Северный Ледовитый океан. Замерзшее царство / Arctic Ocean. The Frozen Sea
Полярный круг - одно из последних мест на Земле, где природа сохранилась в первозданном виде. Программа рассказывает, насколько жизнь этого региона связана со сменой времен года.
2. Тайга / Taiga
Проследите за жизнью ряда животных, в том числе, бурого медведя, в течение года. Все они научились выживать в замерзшей тайге, где произрастает треть всех деревьев на планете.
3. Тундра - ледяная пустыня / Tundra
Арктическая тундра занимает одну пятую всей поверхности суши. Это самое холодное и сухое место на Земле. Посмотрите, как благодаря смене времен года выживают здешние обитатели.
4. Исландия / Iceland.
Откройте для себя красоту Исландии. На этом уникальном острове водятся удивительные животные, например, песцы и самая многочисленная колония атлантических тупиков.




Общее
Уникальный идентификатор : 204482879969639821590949965130173350203 (0x99D5F85CB885E69486124E743B95813B)
Полное имя : D:Film'sWildest Arctic_FilmRus_BD_720p1_ Wildest Arctic_Arctic Ocean_FilmRus_BD_720p.mkv
Формат : Matroska
Версия формата : Version 4 / Version 2
Размер файла : 2,05 Гбайт
Продолжительность : 43 м.
Режим общего битрейта : Переменный
Общий поток : 6814 Кбит/сек
Название фильма : WILDE_ARKTIS_-_DISC_1.Title1002
Дата кодирования : UTC 2014-05-08 14:03:34
Программа кодирования : mkvmerge v6.9.1 ('Blue Panther') 64bit built on Apr 18 2014 18:23:38
Библиотека кодирования : libebml v1.3.0 + libmatroska v1.4.1

Видео
Идентификатор : 2
Формат : AVC
Формат/Информация : Advanced Video Codec
Профиль формата : High@L4.1
Параметр CABAC формата : Да
Параметр ReFrames формата : 2 кадра
Идентификатор кодека : V_MPEG4/ISO/AVC
Продолжительность : 43 м.
Вид битрейта : Переменный
Битрейт : 5846 Кбит/сек
Максимальный битрейт : 75,0 Мбит/сек
Ширина : 1280 пикселей
Высота : 720 пикселей
Соотношение сторон : 16:9
Режим частоты кадров : Постоянный
Частота кадров : 25,000 кадров/сек
Цветовое пространство : YUV
Субдискретизация насыщенности : 4:2:0
Битовая глубина : 8 бит
Тип развёртки : Прогрессивная
Бит/(Пиксели*Кадры) : 0.254
Размер потока : 1,76 Гбайт (86%)
Язык : Russian
Default : Да
Forced : Нет

Аудио #1
Идентификатор : 1
Формат : AC-3
Формат/Информация : Audio Coding 3
Расширение режима : CM (complete main)
Параметр Endianness формата : Big
Идентификатор кодека : A_AC3
Продолжительность : 43 м.
Вид битрейта : Постоянный
Битрейт : 384 Кбит/сек
Каналы : 6 каналов
Расположение каналов : Front: L C R, Side: L R, LFE
Частота : 48,0 КГц
Битовая глубина : 16 бит
Метод сжатия : С потерями
Размер потока : 118 Мбайт (6%)
Язык : Russian
Default : Нет
Forced : Нет

Аудио #2
Идентификатор : 3
Формат : AC-3
Формат/Информация : Audio Coding 3
Расширение режима : CM (complete main)
Параметр Endianness формата : Big
Идентификатор кодека : A_AC3
Продолжительность : 43 м.
Вид битрейта : Постоянный
Битрейт : 448 Кбит/сек
Каналы : 6 каналов
Расположение каналов : Front: L C R, Side: L R, LFE
Частота : 48,0 КГц
Битовая глубина : 16 бит
Метод сжатия : С потерями
Размер потока : 138 Мбайт (7%)
Язык : English
Default : Да
Forced : Нет

Меню
00:00:00.000 : en:(01)00:00:00:000
00:09:04.400 : en:(02)00:09:04:400
00:21:07.000 : en:(03)00:21:07:000
00:31:09.000 : en:(04)00:31:09:000
00:43:00.440 : en:(05)00:43:00:440

Общее
Уникальный идентификатор : 201881765236645567469379225905519017420 (0x97E1038127B702309B17912D2FAA3DCC)
Полное имя : D:Film'sWildest Arctic_FilmRus_BD_720p2_Wildest Arctic_Taiga_FilmRus_BD_720p.mkv
Формат : Matroska
Версия формата : Version 4 / Version 2
Размер файла : 2,06 Гбайт
Продолжительность : 43 м.
Режим общего битрейта : Переменный
Общий поток : 6809 Кбит/сек
Название фильма : WILDE_ARKTIS_-_DISC_1.Title1002
Дата кодирования : UTC 2014-05-08 14:31:26
Программа кодирования : mkvmerge v6.9.1 ('Blue Panther') 64bit built on Apr 18 2014 18:23:38
Библиотека кодирования : libebml v1.3.0 + libmatroska v1.4.1

Видео
Идентификатор : 2
Формат : AVC
Формат/Информация : Advanced Video Codec
Профиль формата : High@L4.1
Параметр CABAC формата : Да
Параметр ReFrames формата : 2 кадра
Идентификатор кодека : V_MPEG4/ISO/AVC
Продолжительность : 43 м.
Вид битрейта : Переменный
Битрейт : 5842 Кбит/сек
Максимальный битрейт : 75,0 Мбит/сек
Ширина : 1280 пикселей
Высота : 720 пикселей
Соотношение сторон : 16:9
Режим частоты кадров : Постоянный
Частота кадров : 25,000 кадров/сек
Цветовое пространство : YUV
Субдискретизация насыщенности : 4:2:0
Битовая глубина : 8 бит
Тип развёртки : Прогрессивная
Бит/(Пиксели*Кадры) : 0.254
Размер потока : 1,77 Гбайт (86%)
Язык : Russian
Default : Да
Forced : Нет

Аудио #1
Идентификатор : 1
Формат : AC-3
Формат/Информация : Audio Coding 3
Расширение режима : CM (complete main)
Параметр Endianness формата : Big
Идентификатор кодека : A_AC3
Продолжительность : 43 м.
Вид битрейта : Постоянный
Битрейт : 384 Кбит/сек
Каналы : 6 каналов
Расположение каналов : Front: L C R, Side: L R, LFE
Частота : 48,0 КГц
Битовая глубина : 16 бит
Метод сжатия : С потерями
Размер потока : 119 Мбайт (6%)
Язык : Russian
Default : Нет
Forced : Нет

Аудио #2
Идентификатор : 3
Формат : AC-3
Формат/Информация : Audio Coding 3
Расширение режима : CM (complete main)
Параметр Endianness формата : Big
Идентификатор кодека : A_AC3
Продолжительность : 43 м.
Вид битрейта : Постоянный
Битрейт : 448 Кбит/сек
Каналы : 6 каналов
Расположение каналов : Front: L C R, Side: L R, LFE
Частота : 48,0 КГц
Битовая глубина : 16 бит
Метод сжатия : С потерями
Размер потока : 139 Мбайт (7%)
Язык : English
Default : Да
Forced : Нет

Меню
00:00:00.000 : en:(01)00:00:00:000
00:10:44.560 : en:(02)00:10:44:560
00:20:53.360 : en:(03)00:20:53:360
00:34:29.600 : en:(04)00:34:29:600
00:43:17.280 : en:(05)00:43:17:280

Общее
Уникальный идентификатор : 213342686308526010577318831360827773782 (0xA0804E8A4C4AF9DB9D1D27015E08D356)
Полное имя : D:Film'sWildest Arctic_FilmRus_BD_720p3_Wildest Arctic_Tundra_FilmRus_BD_720p.mkv
Формат : Matroska
Версия формата : Version 4 / Version 2
Размер файла : 2,05 Гбайт
Продолжительность : 43 м.
Режим общего битрейта : Переменный
Общий поток : 6816 Кбит/сек
Название фильма : WILDE_ARKTIS_-_DISC_1.Title1002
Дата кодирования : UTC 2014-05-08 14:21:43
Программа кодирования : mkvmerge v6.9.1 ('Blue Panther') 64bit built on Apr 18 2014 18:23:38
Библиотека кодирования : libebml v1.3.0 + libmatroska v1.4.1

Видео
Идентификатор : 2
Формат : AVC
Формат/Информация : Advanced Video Codec
Профиль формата : High@L4.1
Параметр CABAC формата : Да
Параметр ReFrames формата : 2 кадра
Идентификатор кодека : V_MPEG4/ISO/AVC
Продолжительность : 43 м.
Вид битрейта : Переменный
Битрейт : 5848 Кбит/сек
Максимальный битрейт : 75,0 Мбит/сек
Ширина : 1280 пикселей
Высота : 720 пикселей
Соотношение сторон : 16:9
Режим частоты кадров : Постоянный
Частота кадров : 25,000 кадров/сек
Цветовое пространство : YUV
Субдискретизация насыщенности : 4:2:0
Битовая глубина : 8 бит
Тип развёртки : Прогрессивная
Бит/(Пиксели*Кадры) : 0.254
Размер потока : 1,76 Гбайт (86%)
Язык : Russian
Default : Да
Forced : Нет

Аудио #1
Идентификатор : 1
Формат : AC-3
Формат/Информация : Audio Coding 3
Расширение режима : CM (complete main)
Параметр Endianness формата : Big
Идентификатор кодека : A_AC3
Продолжительность : 43 м.
Вид битрейта : Постоянный
Битрейт : 384 Кбит/сек
Каналы : 6 каналов
Расположение каналов : Front: L C R, Side: L R, LFE
Частота : 48,0 КГц
Битовая глубина : 16 бит
Метод сжатия : С потерями
Размер потока : 118 Мбайт (6%)
Язык : Russian
Default : Нет
Forced : Нет

Аудио #2
Идентификатор : 3
Формат : AC-3
Формат/Информация : Audio Coding 3
Расширение режима : CM (complete main)
Параметр Endianness формата : Big
Идентификатор кодека : A_AC3
Продолжительность : 43 м.
Вид битрейта : Постоянный
Битрейт : 448 Кбит/сек
Каналы : 6 каналов
Расположение каналов : Front: L C R, Side: L R, LFE
Частота : 48,0 КГц
Битовая глубина : 16 бит
Метод сжатия : С потерями
Размер потока : 138 Мбайт (7%)
Язык : English
Default : Да
Forced : Нет

Релиз:



   Похожие торренты   Торрент   Размер 
В этой теме нет новых непрочитанных сообщений. Дикая Арктика / Wildest Arctic [01-04 из 4] (2012) BDRip 1080p от FilmRus

13 | 5

17.2 ГБ

В этой теме нет новых непрочитанных сообщений. Animal Planet: Дикая Арктика / Wildest Arctic [01-04 из 04] (2012) HDTV

2 | 2

11.6 ГБ

В этой теме нет новых непрочитанных сообщений. Animal Planet: Дикая Арктика / Wildest Arctic [01-04 из 04] (2012) HDTVRip от ExKinoRay

14 | 4

2.74 ГБ

В этой теме нет новых непрочитанных сообщений. IMAX. Арктика 3D / IMAX. To the Arctic 3D (2012) BDRip 720p от HDClub

21 | 2

2.83 ГБ

В этой теме нет новых непрочитанных сообщений. IMAX. Арктика 3D / IMAX. To the Arctic 3D (2012) BDRip 1080p | 3D-Video от HDClub

102 | 9

4.86 ГБ

В этой теме нет новых непрочитанных сообщений. IMAX. Арктика 3D / IMAX. To the Arctic 3D (2012) BDRip 1080p от HDClub

12 | 3

5.31 ГБ

В этой теме нет новых непрочитанных сообщений. IMAX. Арктика / IMAX. To the Arctic (2012) BDRip-AVC от ExKinoRay

10 | 1

1.1 ГБ




Вы не можете начинать темы
Вы не можете отвечать на сообщения
Вы не можете редактировать свои сообщения
Вы не можете удалять свои сообщения
Вы не можете добавлять вложения

Перейти:  
Для Мосгорсуда, Роскомнадзора и рекламодателей: mosgorsud-torrent[собачка]yandex.ru
 Вход
ppkBB3cker v.2 © 2008-2014 @ PPK
[ Time : 2.660s | 15 Queries | GZIP : Off ]

Торрент трекер RUTOR.IN, Не можете зайти на rutor.org? Какой новый адрес рутор? Какое зеркало рутор? Не работает rutor.org и зеркала? Тогда наш торрент специально для вас. Rutor.in неофициальное зеркало rutor. В случае если у Вас заблокирован rutor или вдруг Вы не можете на него зайти, то Вы без труда сможете скачать бесплатно и без рекламы последние новинки кино, игр, сериалов и прочего у нас, на Rutor.in. Не нужно использовать прокси, чтобы зайти на рутор, достаточно воспользоваться нашим ресурсом. Все новые фильмы, игры, сериалы, книги и музыка за 2013 и 2014 годы через торрент бесплатно. Скачивайте фильмы в хорошем качестве, игры для пк, xbox, playstation без регистрации. У нас вы найдете новые Зарубежные сериалы и Русские сериалы 2013, 2014, 2015 годов. Оставайтесь с нами, качайте любимые фильмы, игры, сериалы, книги и музыку.