img image001 image001 image001 image001 image001 image001 image001 image001 image001 image001 image001 image001 image001 image001 image001

Planets Sun Sun Sun
Статистика раздачи
Автор: Nickolas3434 | Размер: 747.1 МБ | Добавлен: 25 май 2014
Раздают: 13    Качают: 2
Скачать торрент
Скачать торрент
Описание торрента

СообщениеДобавлено: 25 май 2014 

Страна: США
Студия: Walt Disney Studios

Жанр: документальный, приключения

Год выпуска: 2011
Продолжительность: 01:29:24

Перевод: Профессиональный (одноголосый закадровый)
Cубтитры: нет
Оригинальная дорожка: нет

Режиссер: Аластер Фовергилл / Alastair Fothergill, Кейт Шолей / Keith Scholey

Описание: Станьте свидетелем невероятных приключений двух семей, стремящихся сделать своим домом одно из самых опасных мест на Земле. Вы столкнётесь лицом к лицу с этими величественными царями саванны и их настоящей жзнью, любовью и решимостью.






Исходник: BDRemux 1080p
Качество видео: BDRip
Формат видео: AVI

Видео: 688x384 (16:9), 23.976 fps, XviD ~ 1031 kbps avg, 0.163 bit/pixel
Аудио: 48 kHz, MP3 2 ch, 128.00 kbps Constant

Раздача от:
Общее
Полное имя : Afrikanskie.koshki.2011.BDRip.avi
Формат : AVI
Формат/Информация : Audio Video Interleave
Размер файла : 747 Мбайт
Продолжительность : 1 ч. 29 м.
Общий поток : 1168 Кбит/сек
Программа кодирования : VirtualDubMod 1.5.10.3 | www.virtualdub-fr.org || (build 2550/release)
Библиотека кодирования : VirtualDubMod build 2550/release

Видео
Идентификатор : 0
Формат : MPEG-4 Visual
Профиль формата : Advanced Simple@L5
Параметр BVOP формата : 1
Параметр QPel формата : Нет
Параметр GMC формата : Без точки перехода
Параметр матрицы формата : Выборочная
Идентификатор кодека : XVID
Идентификатор кодека/Подсказка : XviD
Продолжительность : 1 ч. 29 м.
Битрейт : 1031 Кбит/сек
Ширина : 688 пикселей
Высота : 384 пикселя
Соотношение сторон : 16:9
Частота кадров : 23,976 кадра/сек
Цветовое пространство : YUV
Субдискретизация насыщенности : 4:2:0
Битовая глубина : 8 бит
Тип развёртки : Прогрессивная
Метод сжатия : С потерями
Бит/(Пиксели*Кадры) : 0.163
Размер потока : 659 Мбайт (88%)
Библиотека кодирования : XviD 64

Аудио
Идентификатор : 1
Формат : MPEG Audio
Версия формата : Version 1
Профиль формата : Layer 3
Идентификатор кодека : 55
Идентификатор кодека/Подсказка : MP3
Продолжительность : 1 ч. 29 м.
Вид битрейта : Постоянный
Битрейт : 128 Кбит/сек
Каналы : 2 канала
Частота : 48,0 КГц
Метод сжатия : С потерями
Размер потока : 81,9 Мбайт (11%)
Выравнивание : Соединение по промежуткам
Продолжительность промежутка : 42 мс. (1,00 видеокадр)
Время предзагрузки промежутка : 504 мс.
Библиотека кодирования : L3.99r
Настройки программы : -m s -V 4 -q 2 -lowpass 17 -b 128





   Похожие торренты   Торрент   Размер 
В этой теме нет новых непрочитанных сообщений. Африканские кошки: Королевство смелости / African Cats (2011) BDRip-AVC от New-Team | P1

48 | 8

1.46 ГБ

В этой теме нет новых непрочитанных сообщений. Африканские кошки: Королевство смелости / African Cats (2011) BDRip-AVC от Xixidok

3 | 1

1.58 ГБ

В этой теме нет новых непрочитанных сообщений. Африканские кошки: Королевство смелости / African Cats (2011) BDRip от Xixidok

3 | 1

699.29 МБ

В этой теме нет новых непрочитанных сообщений. Африканские кошки: Королевство смелости / African Cats (2011) BDRip | Дубляж

8 | 1

1.37 ГБ

В этой теме нет новых непрочитанных сообщений. Африканские кошки: Королевство смелости / DisneyNature: African Cats (2011) BDRip 720р | D, P1

7 | 19

6.88 ГБ

В этой теме нет новых непрочитанных сообщений. Африканские кошки: Королевство смелости / African Cats (2011) BDRip 1080p от Xixidok

1 | 2

7.49 ГБ

В этой теме нет новых непрочитанных сообщений. Африканские кошки: Королевство смелости / DisneyNature: African Cats (2011) BDRip от HQCLUB

19 | 1

1.45 ГБ




Вы не можете начинать темы
Вы не можете отвечать на сообщения
Вы не можете редактировать свои сообщения
Вы не можете удалять свои сообщения
Вы не можете добавлять вложения

Перейти:  
Для Мосгорсуда, Роскомнадзора и рекламодателей: mosgorsud-torrent[собачка]yandex.ru
 Вход
ppkBB3cker v.2 © 2008-2014 @ PPK
[ Time : 0.510s | 16 Queries | GZIP : Off ]

Торрент трекер RUTOR.IN, Не можете зайти на rutor.org? Какой новый адрес рутор? Какое зеркало рутор? Не работает rutor.org и зеркала? Тогда наш торрент специально для вас. Rutor.in неофициальное зеркало rutor. В случае если у Вас заблокирован rutor или вдруг Вы не можете на него зайти, то Вы без труда сможете скачать бесплатно и без рекламы последние новинки кино, игр, сериалов и прочего у нас, на Rutor.in. Не нужно использовать прокси, чтобы зайти на рутор, достаточно воспользоваться нашим ресурсом. Все новые фильмы, игры, сериалы, книги и музыка за 2013 и 2014 годы через торрент бесплатно. Скачивайте фильмы в хорошем качестве, игры для пк, xbox, playstation без регистрации. У нас вы найдете новые Зарубежные сериалы и Русские сериалы 2013, 2014, 2015 годов. Оставайтесь с нами, качайте любимые фильмы, игры, сериалы, книги и музыку.
cron