img image001 image001 image001 image001 image001 image001 image001 image001 image001 image001 image001 image001 image001 image001 image001

Planets Sun Sun Sun
Статистика раздачи
Автор: Nickolas3434 | Размер: 1.46 ГБ | Добавлен: 25 май 2014
Раздают: 48    Качают: 8
Скачать торрент
Скачать торрент
Описание торрента

СообщениеДобавлено: 25 май 2014 

Страна: США
Студия: Walt Disney Studios
Жанр: документальный, приключения
Год выпуска: 2011
Продолжительность: 01:29:25

Перевод: Профессиональный (одноголосый закадровый)
Cубтитры: нет
Оригинальная дорожка: нет

Режиссер: Аластер Фовергилл / Alastair Fothergill, Кейт Шолей / Keith Scholey

Описание:
Станьте свидетелем невероятных приключений двух семей, стремящихся сделать своим домом одно из самых опасных мест на Земле. Вы столкнётесь лицом к лицу с этими величественными царями саванны и их настоящей жзнью, любовью и решимостью.







Исходник: Blu-ray 1080p
Качество видео: BDRip-AVC
Формат видео: MKV

Видео: 1024x576 (16:9), 23.976 fps, H264 ~ 1881kbps avg, 0.133 bit/pixel
Аудио: 48 kHz, AC3 6 ch, 448.00 kbps
Присутствуют оригинальные чапторы

Раздача от:
Общее
Полное имя : Afrikanskie.koshki.2011Afrikanskie.koshki.2011.BDRip-AVC.mkv
Формат : Matroska
Версия формата : Version 2
Размер файла : 1,46 Гбайт
Продолжительность : 1 ч. 29 м.
Общий поток : 2330 Кбит/сек
Название фильма : Afrikanskie.koshki.2011.BDRip-AVC AVP Studio
Дата кодирования : UTC 2012-05-12 17:07:01
Программа кодирования : mkvmerge v5.2.0 ('I can't explain') built on Dec 18 2011 18:12:03
Библиотека кодирования : libebml v1.2.3 + libmatroska v1.3.0

Видео
Идентификатор : 1
Формат : AVC
Формат/Информация : Advanced Video Codec
Профиль формата : High@L4.1
Параметр CABAC формата : Да
Параметр ReFrames формата : 11 кадров
Идентификатор кодека : V_MPEG4/ISO/AVC
Продолжительность : 1 ч. 29 м.
Битрейт : 1881 Кбит/сек
Ширина : 1024 пикселя
Высота : 576 пикселей
Соотношение сторон : 16:9
Частота кадров : 23,976 кадра/сек
Цветовое пространство : YUV
Субдискретизация насыщенности : 4:2:0
Битовая глубина : 8 бит
Тип развёртки : Прогрессивная
Бит/(Пиксели*Кадры) : 0.133
Размер потока : 1,15 Гбайт (79%)
Заголовок : Источник Blu-ray 1080
Библиотека кодирования : x264 core 119 r2106 07efeb4
Настройки программы : cabac=1 / ref=11 / deblock=1:-2:-1 / analyse=0x3:0x113 / me=umh / subme=9 / psy=1 / psy_rd=1.00:0.10 / mixed_ref=1 / me_range=32 / chroma_me=1 / trellis=1 / 8x8dct=1 / cqm=0 / deadzone=21,11 / fast_pskip=0 / chroma_qp_offset=-3 / threads=3 / sliced_threads=0 / nr=0 / decimate=1 / interlaced=0 / bluray_compat=0 / constrained_intra=0 / bframes=10 / b_pyramid=2 / b_adapt=1 / b_bias=0 / direct=3 / weightb=1 / open_gop=0 / weightp=2 / keyint=240 / keyint_min=23 / scenecut=40 / intra_refresh=0 / rc_lookahead=60 / rc=2pass / mbtree=1 / bitrate=1881 / ratetol=1.0 / qcomp=0.60 / qpmin=0 / qpmax=69 / qpstep=4 / cplxblur=20.0 / qblur=0.5 / ip_ratio=1.40 / aq=1:1.00
Язык : English
Default : Да
Forced : Нет

Аудио
Идентификатор : 2
Формат : AC-3
Формат/Информация : Audio Coding 3
Расширение режима : CM (complete main)
Идентификатор кодека : A_AC3
Продолжительность : 1 ч. 29 м.
Вид битрейта : Постоянный
Битрейт : 448 Кбит/сек
Каналы : 6 каналов
Расположение каналов : Front: L C R, Side: L R, LFE
Частота : 48,0 КГц
Битовая глубина : 16 бит
Метод сжатия : С потерями
Размер потока : 287 Мбайт (19%)
Заголовок : Источник Blu-ray 1080
Язык : Russian
Default : Да
Forced : Нет

Меню
00:00:00.000 : ru:Эпизод 1
00:04:52.917 : ru:Эпизод 2
00:08:54.158 : ru:Эпизод 3
00:12:56.317 : ru:Эпизод 4
00:19:59.573 : ru:Эпизод 5
00:33:13.700 : ru:Эпизод 6
00:41:49.840 : ru:Эпизод 7
00:52:05.038 : ru:Эпизод 8
00:59:15.552 : ru:Эпизод 9
01:02:44.260 : ru:Эпизод 10
01:14:56.658 : ru:Эпизод 11
01:23:25.792 : ru:Эпизод 12





   Похожие торренты   Торрент   Размер 
В этой теме нет новых непрочитанных сообщений. Африканские кошки: Королевство смелости / African Cats (2011) BDRip от New-Team | P1

13 | 2

747.1 МБ

В этой теме нет новых непрочитанных сообщений. Африканские кошки: Королевство смелости / African Cats (2011) BDRip | Дубляж

8 | 1

1.37 ГБ

В этой теме нет новых непрочитанных сообщений. Африканские кошки: Королевство смелости / African Cats (2011) BDRip-AVC от Xixidok

3 | 1

1.58 ГБ

В этой теме нет новых непрочитанных сообщений. Африканские кошки: Королевство смелости / African Cats (2011) BDRip от Xixidok

3 | 1

699.29 МБ

В этой теме нет новых непрочитанных сообщений. Африканские кошки: Королевство смелости / DisneyNature: African Cats (2011) BDRip 720р | D, P1

7 | 19

6.88 ГБ

В этой теме нет новых непрочитанных сообщений. Африканские кошки: Королевство смелости / DisneyNature: African Cats (2011) BDRip от HQCLUB

19 | 1

1.45 ГБ

В этой теме нет новых непрочитанных сообщений. Африканские кошки: Королевство смелости / African Cats (2011) BDRip 1080p от Xixidok

1 | 2

7.49 ГБ




Вы не можете начинать темы
Вы не можете отвечать на сообщения
Вы не можете редактировать свои сообщения
Вы не можете удалять свои сообщения
Вы не можете добавлять вложения

Перейти:  
Для Мосгорсуда, Роскомнадзора и рекламодателей: mosgorsud-torrent[собачка]yandex.ru
 Вход
ppkBB3cker v.2 © 2008-2014 @ PPK
[ Time : 0.080s | 15 Queries | GZIP : On ]

Торрент трекер RUTOR.IN, Не можете зайти на rutor.org? Какой новый адрес рутор? Какое зеркало рутор? Не работает rutor.org и зеркала? Тогда наш торрент специально для вас. Rutor.in неофициальное зеркало rutor. В случае если у Вас заблокирован rutor или вдруг Вы не можете на него зайти, то Вы без труда сможете скачать бесплатно и без рекламы последние новинки кино, игр, сериалов и прочего у нас, на Rutor.in. Не нужно использовать прокси, чтобы зайти на рутор, достаточно воспользоваться нашим ресурсом. Все новые фильмы, игры, сериалы, книги и музыка за 2013 и 2014 годы через торрент бесплатно. Скачивайте фильмы в хорошем качестве, игры для пк, xbox, playstation без регистрации. У нас вы найдете новые Зарубежные сериалы и Русские сериалы 2013, 2014, 2015 годов. Оставайтесь с нами, качайте любимые фильмы, игры, сериалы, книги и музыку.