img image001 image001 image001 image001 image001 image001 image001 image001 image001 image001 image001 image001 image001 image001 image001

Planets Sun Sun Sun
Статистика раздачи
Автор: Nickolas3434 | Размер: 4.47 ГБ | Добавлен: 25 май 2014
Раздают: 63    Качают: 4
Скачать торрент
Скачать торрент
Описание торрента

СообщениеДобавлено: 25 май 2014 

Название: Discovery: Туристические жемчужины
Оригинальное название: Discovery HD Getaways
Год выпуска: 2004
Жанр: Документальный
Выпущено: США, Канада
Режиссер: Джеймс Кокс
Сюжет фильма:

Откройте для себя лучшие места для отдыха на нашей планете: от уединенных пляжей до диких африканских сафари. «Туристические жемчужины» - это все, что вам нужно для того, чтобы спланировать следующий отпуск; программы полны деталей и подробных описаний того, что непременно стоит увидеть и сделать на отдыхе.



Продолжительность: 4 x ~ 00:23:30
Перевод: Многоголосый закадровый
Чаптеры: есть

Описание: Остров Бора Бора, расположенный в южной части Тихого океана, - это фантастический мир нетронутых бирюзовых лагун, коралловых рифов и белых песчаных пляжей с акулами.

Файл
Качество: BDRip 720p (исходник Blu-ray Disc)
Видео: 1280x720, 5500 Kbps Кбит/сек, 23.976 кадр/сек, AVC, x264, 2-pass
Аудио1: AC-3, 640 Кбит/сек, 6 канала(ов), 48,0 КГц - Дублированный
Аудио2: AC-3, 640 Кбит/сек, 6 канала(ов), 48,0 КГц - English


Format : Matroska
Format version : Version 2
File size : 1.12 GiB
Duration : 23mn 34s
Overall bit rate : 6 780 Kbps
Movie name : Bora Bora.Discovery HD Getaways.(2004).BDRip.720p.[denis100]
Encoded date : UTC 2014-05-18 12:40:46
Writing application : mkvmerge v5.8.0 ('No Sleep / Pillow') built on Sep 2 2012 15:37:04
Writing library : libebml v1.2.3 + libmatroska v1.3.0

Video
ID : 1
Format : AVC
Format/Info : Advanced Video Codec
Format profile : High@L4.1
Format settings, CABAC : Yes
Format settings, ReFrames : 9 frames
Codec ID : V_MPEG4/ISO/AVC
Duration : 23mn 34s
Bit rate : 5 499 Kbps
Width : 1 280 pixels
Height : 720 pixels
Display aspect ratio : 16:9
Frame rate mode : Constant
Frame rate : 23.976 fps
Color space : YUV
Chroma subsampling : 4:2:0
Bit depth : 8 bits
Scan type : Progressive
Bits/(Pixel*Frame) : 0.249
Stream size : 905 MiB (79%)
Title : Bora Bora.Discovery HD Getaways.(2004).BDRip.720p.[denis100]
Writing library : x264 core 138 r2358 9e941d1
Encoding settings : cabac=1 / ref=9 / deblock=1:-3:-3 / analyse=0x3:0x133 / me=umh / subme=11 / psy=1 / psy_rd=1.00:0.15 / mixed_ref=1 / me_range=32 / chroma_me=1 / trellis=2 / 8x8dct=1 / cqm=0 / deadzone=21,11 / fast_pskip=0 / chroma_qp_offset=-3 / threads=6 / lookahead_threads=1 / sliced_threads=0 / nr=0 / decimate=1 / interlaced=0 / bluray_compat=0 / constrained_intra=0 / bframes=5 / b_pyramid=2 / b_adapt=2 / b_bias=0 / direct=3 / weightb=1 / open_gop=0 / weightp=2 / keyint=240 / keyint_min=23 / scenecut=40 / intra_refresh=0 / rc=2pass / mbtree=0 / bitrate=5499 / ratetol=1.0 / qcomp=0.60 / qpmin=0 / qpmax=69 / qpstep=4 / cplxblur=20.0 / qblur=0.5 / ip_ratio=1.40 / pb_ratio=1.30 / aq=1:0.90
Language : English
Default : Yes
Forced : No

Audio #1
ID : 2
Format : AC-3
Format/Info : Audio Coding 3
Mode extension : CM (complete main)
Format settings, Endianness : Big
Codec ID : A_AC3
Duration : 23mn 34s
Bit rate mode : Constant
Bit rate : 640 Kbps
Channel(s) : 6 channels
Channel positions : Front: L C R, Side: L R, LFE
Sampling rate : 48.0 KHz
Bit depth : 16 bits
Compression mode : Lossy
Stream size : 108 MiB (9%)
Title : Дублированный
Language : Russian
Default : Yes
Forced : No

Audio #2
ID : 3
Format : AC-3
Format/Info : Audio Coding 3
Mode extension : CM (complete main)
Format settings, Endianness : Big
Codec ID : A_AC3
Duration : 23mn 34s
Bit rate mode : Constant
Bit rate : 640 Kbps
Channel(s) : 6 channels
Channel positions : Front: L C R, Side: L R, LFE
Sampling rate : 48.0 KHz
Bit depth : 16 bits
Compression mode : Lossy
Stream size : 108 MiB (9%)
Title : English
Language : English
Default : No
Forced : No

Menu
00:00:00.000 : en:00:00:00.000
00:03:47.352 : en:00:03:47.352
00:11:29.022 : en:00:11:29.022
00:18:08.796 : en:00:18:08.796

Описание:Глубоко в сердце Африки расположено пристанище самых умных и впечатляющих приматов на земле - горилл.
Файл
Качество: BDRip 720p (исходник Blu-ray Disc)
Видео: 1280x720, 5500 Kbps Кбит/сек, 23.976 кадр/сек, AVC, x264, 2-pass
Аудио1: AC-3, 640 Кбит/сек, 6 канала(ов), 48,0 КГц - Дублированный
Аудио2: AC-3, 640 Кбит/сек, 6 канала(ов), 48,0 КГц - English



Format : Matroska
Format version : Version 2
File size : 1.12 GiB
Duration : 23mn 34s
Overall bit rate : 6 779 Kbps
Movie name : Safari k gornym gorillam.HD Getaways.(2004).BDRip.720p.[denis100]
Encoded date : UTC 2014-05-18 09:35:38
Writing application : mkvmerge v5.8.0 ('No Sleep / Pillow') built on Sep 2 2012 15:37:04
Writing library : libebml v1.2.3 + libmatroska v1.3.0

Video
ID : 1
Format : AVC
Format/Info : Advanced Video Codec
Format profile : High@L4.1
Format settings, CABAC : Yes
Format settings, ReFrames : 9 frames
Codec ID : V_MPEG4/ISO/AVC
Duration : 23mn 34s
Bit rate : 5 499 Kbps
Width : 1 280 pixels
Height : 720 pixels
Display aspect ratio : 16:9
Frame rate mode : Constant
Frame rate : 23.976 fps
Color space : YUV
Chroma subsampling : 4:2:0
Bit depth : 8 bits
Scan type : Progressive
Bits/(Pixel*Frame) : 0.249
Stream size : 905 MiB (79%)
Title : Safari k gornym gorillam.HD Getaways.(2004).BDRip.720p.[denis100]
Writing library : x264 core 138 r2358 9e941d1
Encoding settings : cabac=1 / ref=9 / deblock=1:-3:-3 / analyse=0x3:0x133 / me=umh / subme=11 / psy=1 / psy_rd=1.00:0.10 / mixed_ref=1 / me_range=32 / chroma_me=1 / trellis=2 / 8x8dct=1 / cqm=0 / deadzone=21,11 / fast_pskip=0 / chroma_qp_offset=-3 / threads=6 / lookahead_threads=1 / sliced_threads=0 / nr=0 / decimate=0 / interlaced=0 / bluray_compat=0 / constrained_intra=0 / bframes=5 / b_pyramid=2 / b_adapt=2 / b_bias=0 / direct=3 / weightb=1 / open_gop=0 / weightp=2 / keyint=240 / keyint_min=23 / scenecut=40 / intra_refresh=0 / rc=2pass / mbtree=0 / bitrate=5499 / ratetol=1.0 / qcomp=0.60 / qpmin=0 / qpmax=69 / qpstep=4 / cplxblur=20.0 / qblur=0.5 / ip_ratio=1.40 / pb_ratio=1.30 / aq=1:0.80
Language : English
Default : Yes
Forced : No

Audio #1
ID : 2
Format : AC-3
Format/Info : Audio Coding 3
Mode extension : CM (complete main)
Format settings, Endianness : Big
Codec ID : A_AC3
Duration : 23mn 34s
Bit rate mode : Constant
Bit rate : 640 Kbps
Channel(s) : 6 channels
Channel positions : Front: L C R, Side: L R, LFE
Sampling rate : 48.0 KHz
Bit depth : 16 bits
Compression mode : Lossy
Stream size : 108 MiB (9%)
Title : Дублированный
Language : Russian
Default : Yes
Forced : No

Audio #2
ID : 3
Format : AC-3
Format/Info : Audio Coding 3
Mode extension : CM (complete main)
Format settings, Endianness : Big
Codec ID : A_AC3
Duration : 23mn 34s
Bit rate mode : Constant
Bit rate : 640 Kbps
Channel(s) : 6 channels
Channel positions : Front: L C R, Side: L R, LFE
Sampling rate : 48.0 KHz
Bit depth : 16 bits
Compression mode : Lossy
Stream size : 108 MiB (9%)
Title : English
Language : English
Default : No
Forced : No

Menu
00:00:00.000 : en:00:00:00.000
00:05:34.459 : en:00:05:34.459
00:10:27.043 : en:00:10:27.043
00:20:28.185 : en:00:20:28.185

Описание: Посетите три самых красивых пляжа на планете: протяженную цепь островов, расположенных на тысячи миль вдали от Африки; северо-западное побережье Америки, единственное из всех побережий покрытое лесом; и самый отдаленный естественный пляж на Земле, который за год посещают менее тысячи человек.

Файл
Качество: BDRip 720p (исходник Blu-ray Disc)
Видео: 1280x720, 5500 Kbps Кбит/сек, 23.976 кадр/сек, AVC, x264, 2-pass
Аудио1: AC-3, 640 Кбит/сек, 6 канала(ов), 48,0 КГц - Дублированный
Аудио2: AC-3, 640 Кбит/сек, 6 канала(ов), 48,0 КГц - English



Format : Matroska
Format version : Version 2
File size : 1.12 GiB
Duration : 23mn 33s
Overall bit rate : 6 783 Kbps
Movie name : Prirodnye pljazhi.HD Getaways.(2004).BDRip.720p.[denis100]
Encoded date : UTC 2014-05-18 09:49:38
Writing application : mkvmerge v5.8.0 ('No Sleep / Pillow') built on Sep 2 2012 15:37:04
Writing library : libebml v1.2.3 + libmatroska v1.3.0

Video
ID : 1
Format : AVC
Format/Info : Advanced Video Codec
Format profile : High@L4.1
Format settings, CABAC : Yes
Format settings, ReFrames : 9 frames
Codec ID : V_MPEG4/ISO/AVC
Duration : 23mn 33s
Bit rate : 5 500 Kbps
Width : 1 280 pixels
Height : 720 pixels
Display aspect ratio : 16:9
Frame rate mode : Constant
Frame rate : 23.976 fps
Color space : YUV
Chroma subsampling : 4:2:0
Bit depth : 8 bits
Scan type : Progressive
Bits/(Pixel*Frame) : 0.249
Stream size : 905 MiB (79%)
Title : Prirodnye pljazhi.HD Getaways.(2004).BDRip.720p.[denis100]
Writing library : x264 core 138 r2358 9e941d1
Encoding settings : cabac=1 / ref=9 / deblock=1:-3:-3 / analyse=0x3:0x133 / me=umh / subme=11 / psy=1 / psy_rd=1.00:0.10 / mixed_ref=1 / me_range=32 / chroma_me=1 / trellis=2 / 8x8dct=1 / cqm=0 / deadzone=21,11 / fast_pskip=0 / chroma_qp_offset=-3 / threads=6 / lookahead_threads=1 / sliced_threads=0 / nr=0 / decimate=1 / interlaced=0 / bluray_compat=0 / constrained_intra=0 / bframes=6 / b_pyramid=2 / b_adapt=2 / b_bias=0 / direct=3 / weightb=1 / open_gop=0 / weightp=2 / keyint=240 / keyint_min=23 / scenecut=40 / intra_refresh=0 / rc=2pass / mbtree=0 / bitrate=5500 / ratetol=1.0 / qcomp=0.60 / qpmin=0 / qpmax=69 / qpstep=4 / cplxblur=20.0 / qblur=0.5 / ip_ratio=1.40 / pb_ratio=1.30 / aq=1:0.90
Language : English
Default : Yes
Forced : No

Audio #1
ID : 2
Format : AC-3
Format/Info : Audio Coding 3
Mode extension : CM (complete main)
Format settings, Endianness : Big
Codec ID : A_AC3
Duration : 23mn 33s
Bit rate mode : Constant
Bit rate : 640 Kbps
Channel(s) : 6 channels
Channel positions : Front: L C R, Side: L R, LFE
Sampling rate : 48.0 KHz
Bit depth : 16 bits
Compression mode : Lossy
Stream size : 108 MiB (9%)
Title : Дублированный
Language : Russian
Default : Yes
Forced : No

Audio #2
ID : 3
Format : AC-3
Format/Info : Audio Coding 3
Mode extension : CM (complete main)
Format settings, Endianness : Big
Codec ID : A_AC3
Duration : 23mn 33s
Bit rate mode : Constant
Bit rate : 640 Kbps
Channel(s) : 6 channels
Channel positions : Front: L C R, Side: L R, LFE
Sampling rate : 48.0 KHz
Bit depth : 16 bits
Compression mode : Lossy
Stream size : 108 MiB (9%)
Title : English
Language : English
Default : No
Forced : No

Menu
00:00:00.000 : en:00:00:00.000
00:05:08.975 : en:00:05:08.975
00:15:21.170 : en:00:15:21.170
00:19:12.401 : en:00:19:12.401


Описание: Если вы хотите убежать из шумного города, поезжайте на пляж в штате Юкатан в Мексике, где вы сможете погрузиться с аквалангом ко второму по величине рифу на планете, пролететь на самолете над древними руинами майя или отправиться в путешествие в непролазные джунгли. Или к Индийскому океану в шикарный отель, с лучшими комплексами спа и единственным в своем роде бескрайним бассейном.

Файл
Качество: BDRip 720p (исходник Blu-ray Disc)
Видео: 1280x720, 5500 Kbps Кбит/сек, 23.976 кадр/сек, AVC, x264, 2-pass
Аудио1: AC-3, 640 Кбит/сек, 6 канала(ов), 48,0 КГц - Дублированный
Аудио2: AC-3, 640 Кбит/сек, 6 канала(ов), 48,0 КГц - English



Format : Matroska
Format version : Version 2
File size : 1.12 GiB
Duration : 23mn 32s
Overall bit rate : 6 781 Kbps
Movie name : Pobeg iz megapolisa.HD Getaways.(2004).BDRip.720p.[denis100]
Encoded date : UTC 2014-05-18 09:40:58
Writing application : mkvmerge v5.8.0 ('No Sleep / Pillow') built on Sep 2 2012 15:37:04
Writing library : libebml v1.2.3 + libmatroska v1.3.0

Video
ID : 1
Format : AVC
Format/Info : Advanced Video Codec
Format profile : High@L4.1
Format settings, CABAC : Yes
Format settings, ReFrames : 9 frames
Codec ID : V_MPEG4/ISO/AVC
Duration : 23mn 32s
Bit rate : 5 500 Kbps
Width : 1 280 pixels
Height : 720 pixels
Display aspect ratio : 16:9
Frame rate mode : Constant
Frame rate : 23.976 fps
Color space : YUV
Chroma subsampling : 4:2:0
Bit depth : 8 bits
Scan type : Progressive
Bits/(Pixel*Frame) : 0.249
Stream size : 904 MiB (79%)
Title : Pobeg iz megapolisa.HD Getaways.(2004).BDRip.720p.[denis100]
Writing library : x264 core 138 r2358 9e941d1
Encoding settings : cabac=1 / ref=9 / deblock=1:-3:-3 / analyse=0x3:0x133 / me=umh / subme=11 / psy=1 / psy_rd=1.00:0.10 / mixed_ref=1 / me_range=32 / chroma_me=1 / trellis=2 / 8x8dct=1 / cqm=0 / deadzone=21,11 / fast_pskip=0 / chroma_qp_offset=-3 / threads=6 / lookahead_threads=1 / sliced_threads=0 / nr=0 / decimate=1 / interlaced=0 / bluray_compat=0 / constrained_intra=0 / bframes=6 / b_pyramid=2 / b_adapt=2 / b_bias=0 / direct=3 / weightb=1 / open_gop=0 / weightp=2 / keyint=240 / keyint_min=23 / scenecut=40 / intra_refresh=0 / rc=2pass / mbtree=0 / bitrate=5500 / ratetol=1.0 / qcomp=0.60 / qpmin=0 / qpmax=69 / qpstep=4 / cplxblur=20.0 / qblur=0.5 / ip_ratio=1.40 / pb_ratio=1.30 / aq=1:0.90
Language : English
Default : Yes
Forced : No

Audio #1
ID : 2
Format : AC-3
Format/Info : Audio Coding 3
Mode extension : CM (complete main)
Format settings, Endianness : Big
Codec ID : A_AC3
Duration : 23mn 32s
Bit rate mode : Constant
Bit rate : 640 Kbps
Channel(s) : 6 channels
Channel positions : Front: L C R, Side: L R, LFE
Sampling rate : 48.0 KHz
Bit depth : 16 bits
Compression mode : Lossy
Stream size : 108 MiB (9%)
Title : Дублированный
Language : Russian
Default : Yes
Forced : No

Audio #2
ID : 3
Format : AC-3
Format/Info : Audio Coding 3
Mode extension : CM (complete main)
Format settings, Endianness : Big
Codec ID : A_AC3
Duration : 23mn 32s
Bit rate mode : Constant
Bit rate : 640 Kbps
Channel(s) : 6 channels
Channel positions : Front: L C R, Side: L R, LFE
Sampling rate : 48.0 KHz
Bit depth : 16 bits
Compression mode : Lossy
Stream size : 108 MiB (9%)
Title : English
Language : English
Default : No
Forced : No

Menu
00:00:00.000 : en:00:00:00.000
00:04:50.582 : en:00:04:50.582
00:14:06.262 : en:00:14:06.262
00:20:44.827 : en:00:20:44.827


Автор рипа: Сообщество:



   Похожие торренты   Торрент   Размер 
В этой теме нет новых непрочитанных сообщений. Discovery: Туристические жемчужины Диск 2 / Discovery HD Getaways Disc 2 (2004) HDTVRip-AVC от Тorrent-Хzona | P1

1 | 1

1.5 ГБ

В этой теме нет новых непрочитанных сообщений. Discovery: Туристические жемчужины Диск 1 / Discovery HD Getaways Disc 1 (2004) HDTVRip-AVC от Тorrent-Хzona | P1

1 | 1

1.45 ГБ

В этой теме нет новых непрочитанных сообщений. Discovery: Туристические жемчужины. Диск 1 / HD Getaways (2004) BDRip 720p от NOLIMITS-TEAM

0 | 1

2.2 ГБ

В этой теме нет новых непрочитанных сообщений. Discovery: Туристические жемчужины. Диск 2 / HD Getaways (2004) BDRip 720p от NOLIMITS-TEAM

0 | 1

2.2 ГБ

В этой теме нет новых непрочитанных сообщений. Discovery: Туристические жемчужины / Discovery: HD Getaways [01-8 из 8] (2004) HDRip от R.G.RealMT | Р1

3 | 2

3.16 ГБ

В этой теме нет новых непрочитанных сообщений. Туристические жемчужины / HD Getaways [01-04] (2004) BDRip 1080p

25 | 6

11.91 ГБ

В этой теме нет новых непрочитанных сообщений. Туристические жемчужины (4 серии) / HD Getaways (2004) BDRip AVC

89 | 12

2.96 ГБ




Вы не можете начинать темы
Вы не можете отвечать на сообщения
Вы не можете редактировать свои сообщения
Вы не можете удалять свои сообщения
Вы не можете добавлять вложения

Перейти:  
Для Мосгорсуда, Роскомнадзора и рекламодателей: mosgorsud-torrent[собачка]yandex.ru
 Вход
ppkBB3cker v.2 © 2008-2014 @ PPK
[ Time : 0.235s | 16 Queries | GZIP : Off ]

Торрент трекер RUTOR.IN, Не можете зайти на rutor.org? Какой новый адрес рутор? Какое зеркало рутор? Не работает rutor.org и зеркала? Тогда наш торрент специально для вас. Rutor.in неофициальное зеркало rutor. В случае если у Вас заблокирован rutor или вдруг Вы не можете на него зайти, то Вы без труда сможете скачать бесплатно и без рекламы последние новинки кино, игр, сериалов и прочего у нас, на Rutor.in. Не нужно использовать прокси, чтобы зайти на рутор, достаточно воспользоваться нашим ресурсом. Все новые фильмы, игры, сериалы, книги и музыка за 2013 и 2014 годы через торрент бесплатно. Скачивайте фильмы в хорошем качестве, игры для пк, xbox, playstation без регистрации. У нас вы найдете новые Зарубежные сериалы и Русские сериалы 2013, 2014, 2015 годов. Оставайтесь с нами, качайте любимые фильмы, игры, сериалы, книги и музыку.
cron