img image001 image001 image001 image001 image001 image001 image001 image001 image001 image001 image001 image001 image001 image001 image001

Planets Sun Sun Sun
Статистика раздачи
Автор: Nickolas3434 | Размер: 699.48 МБ | Добавлен: 25 май 2014
Раздают: 8    Качают: 2
Скачать торрент
Скачать торрент
Описание торрента

СообщениеДобавлено: 25 май 2014 

Гепард - борьба за признание
Cheetah - Race to Rule




Год выпуска: 2013
Страна: США
Жанр: Документальный
Продолжительность: 00:43:34
Перевод: Профессиональный (дублированный) АРК·ТВ
Русские субтитры: нет


Режиссер: Ян Лампен / Jan Lampen

Описание: Это подлинный рассказ о гепарде, рождённом в заповеднике Линьянти. Он самый маленький в помёте. Ему придётся с боем добывать себе каждую крупицу материнского внимания.


Автор рипа: Leo.pard
Исходник: HDTV 1080i


Kачество: HDTVRip
Формат: AVI
Видео: XviD, 720x400 (16:9), 1851 Kbps, 25 fps
Аудио: AC3, 384 Kbps, 48 KHz, 6 channels

Сэмпл: http://multi-up.com/974792

General
Complete name : D:Gepard-borba.za.priznanie.2013.HDTVRip.avi
Format : AVI
Format/Info : Audio Video Interleave
File size : 699 MiB
Duration : 43mn 34s
Overall bit rate : 2 245 Kbps
Writing application : VirtualDubMod 1.5.10.3 | www.virtualdub-fr.org || (build 2550/release)
Writing library : VirtualDubMod build 2550/release

Video
ID : 0
Format : MPEG-4 Visual
Format profile : Advanced Simple@L5
Format settings, BVOP : 1
Format settings, QPel : No
Format settings, GMC : No warppoints
Format settings, Matrix : Custom
Codec ID : XVID
Codec ID/Hint : XviD
Duration : 43mn 34s
Bit rate : 1 851 Kbps
Width : 720 pixels
Height : 400 pixels
Display aspect ratio : 16:9
Frame rate : 25.000 fps
Color space : YUV
Chroma subsampling : 4:2:0
Bit depth : 8 bits
Scan type : Progressive
Compression mode : Lossy
Bits/(Pixel*Frame) : 0.257
Stream size : 577 MiB (82%)
Writing library : XviD 73

Audio
ID : 1
Format : AC-3
Format/Info : Audio Coding 3
Mode extension : CM (complete main)
Format settings, Endianness : Big
Codec ID : 2000
Duration : 43mn 34s
Bit rate mode : Constant
Bit rate : 384 Kbps
Channel(s) : 6 channels
Channel positions : Front: L C R, Side: L R, LFE
Sampling rate : 48.0 KHz
Bit depth : 16 bits
Compression mode : Lossy
Stream size : 120 MiB (17%)
Alignment : Split accross interleaves
Interleave, duration : 40 ms (1.00 video frame)
Interleave, preload duration : 500 ms







   Похожие торренты   Торрент   Размер 
В этой теме нет новых непрочитанных сообщений. Гепард - борьба за признание / Cheetah - Race to Rule (2013) HDTVRip-AVC от Leo.pard | D

29 | 4

699.9 МБ

В этой теме нет новых непрочитанных сообщений. Гепард: Фатальный инстинкт / Cheetah: Fatal Instinct (2012) HDTVRip-AVC от Leo.pard | D

16 | 4

699.52 МБ

В этой теме нет новых непрочитанных сообщений. Nat Geo Wild: Человек против гепарда / Man v. Cheetah / Man vs. Cheetah (2013) HDTVRip от Leo.pard | D

55 | 7

700.25 МБ

В этой теме нет новых непрочитанных сообщений. Nat Geo Wild: Человек против гепарда / Man v. Cheetah / Man vs. Cheetah (2013) HDTVRip-AVC от Leo.pard | D

23 | 10

699.48 МБ

В этой теме нет новых непрочитанных сообщений. Гепард: Фатальный инстинкт / National Geographic: Cheetah: Fatal Instinct (2012) HDTVRip

7 | 4

643.81 МБ

В этой теме нет новых непрочитанных сообщений. National Geographic: Гепард: смертельная охота / Cheetahs: The Deadly Race (2002) DVDRip от LTarik

0 | 5

700.3 МБ

В этой теме нет новых непрочитанных сообщений. Царство гепардов / Cheetah Kingdom [01-12 из 12] (2010) HDTVRip от Fenix

2 | 2

4.65 ГБ




Вы не можете начинать темы
Вы не можете отвечать на сообщения
Вы не можете редактировать свои сообщения
Вы не можете удалять свои сообщения
Вы не можете добавлять вложения

Перейти:  
Для Мосгорсуда, Роскомнадзора и рекламодателей: mosgorsud-torrent[собачка]yandex.ru
 Вход
ppkBB3cker v.2 © 2008-2014 @ PPK
[ Time : 0.035s | 16 Queries | GZIP : Off ]

Торрент трекер RUTOR.IN, Не можете зайти на rutor.org? Какой новый адрес рутор? Какое зеркало рутор? Не работает rutor.org и зеркала? Тогда наш торрент специально для вас. Rutor.in неофициальное зеркало rutor. В случае если у Вас заблокирован rutor или вдруг Вы не можете на него зайти, то Вы без труда сможете скачать бесплатно и без рекламы последние новинки кино, игр, сериалов и прочего у нас, на Rutor.in. Не нужно использовать прокси, чтобы зайти на рутор, достаточно воспользоваться нашим ресурсом. Все новые фильмы, игры, сериалы, книги и музыка за 2013 и 2014 годы через торрент бесплатно. Скачивайте фильмы в хорошем качестве, игры для пк, xbox, playstation без регистрации. У нас вы найдете новые Зарубежные сериалы и Русские сериалы 2013, 2014, 2015 годов. Оставайтесь с нами, качайте любимые фильмы, игры, сериалы, книги и музыку.
cron