img image001 image001 image001 image001 image001 image001 image001 image001 image001 image001 image001 image001 image001 image001 image001

Planets Sun Sun Sun
Статистика раздачи
Автор: Nickolas3434 | Размер: 8.48 ГБ | Добавлен: 25 май 2014
Раздают: 48    Качают: 7
Скачать торрент
Скачать торрент
Описание торрента

СообщениеДобавлено: 25 май 2014 

Название: Викинги. Сага о новых землях
Оригинальное название: Vikings: Journey to New Worlds
Год выхода: 2004
Жанр: документальный, короткометражка, история
Режиссер: Марк Фафард
В ролях: Jean-Sébastien Fortin, Martin Gauthier, Andrew Létourneau, Николас Симар

Сюжет фильма: Норманны, викинги, варяги - так в разных концах Старого Света называли скандинавских воинов. Они покоряли новые земли и искали богатства. Они создавали свои королевства в Нормандии и Южной Италии, были среди основателей Древнерусского государства. За 500 лет до Колумба один из них стал первым европейцем, вступившим на землю Северной Америки.

Выпущено: Канада
Продолжительность: 00:40:02

Формат: BDAV
Видео: 1920x1080 at 23.976 fps, MPEG-4 AVC, ~27999 kbps avg
Аудио#1: Russian: 48 kHz, АС3, 3/2 (L,C,R,l,r) + LFE ch ~448.00 kbps avg |Профессиональный Одноголосый закадровый, студия «Омикрон»|
Аудио#2: English: 48 kHz, АС3, 3/2 (L,C,R,l,r) + LFE ch ~448.00 kbps avg
Субтитры: Russian, English

Релиз от:

Общее
Идентификатор : 1 (0x1)
Полное имя : //Vikings.Journey.to.New.Worlds.2004.1080p.Bluray.AVC.Remux.HDCLUBBDMVSTREAM�0000.m2ts
Формат : BDAV
Формат/Информация : Blu-ray Video
Размер файла : 8,48 Гбайт
Продолжительность : 40 м.
Режим общего битрейта : Переменный
Общий поток : 30,3 Мбит/сек
Максимальный общий битрейт : 35,5 Мбит/сек

Видео
Идентификатор : 4113 (0x1011)
Идентификатор меню : 1 (0x1)
Формат : AVC
Формат/Информация : Advanced Video Codec
Профиль формата : High@L4.1
Параметр CABAC формата : Да
Параметр ReFrames формата : 4 кадра
Идентификатор кодека : 27
Продолжительность : 40 м.
Вид битрейта : Постоянный
Битрейт : 28,0 Мбит/сек
Ширина : 1920 пикселей
Высота : 1080 пикселей
Соотношение сторон : 16:9
Частота кадров : 23,976 кадра/сек
Стандарт вещания : NTSC
Цветовое пространство : YUV
Субдискретизация насыщенности : 4:2:0
Битовая глубина : 8 бит
Тип развёртки : Прогрессивная
Бит/(Пиксели*Кадры) : 0.563
Размер потока : 7,89 Гбайт (93%)
Основные цвета : BT.709
Характеристики трансфера : BT.709
Коэффициенты матрицы : BT.709

Аудио #1
Идентификатор : 4352 (0x1100)
Идентификатор меню : 1 (0x1)
Формат : AC-3
Формат/Информация : Audio Coding 3
Расширение режима : CM (complete main)
Параметр Endianness формата : Big
Идентификатор кодека : 129
Продолжительность : 40 м.
Вид битрейта : Постоянный
Битрейт : 448 Кбит/сек
Каналы : 6 каналов
Расположение каналов : Front: L C R, Side: L R, LFE
Частота : 48,0 КГц
Битовая глубина : 16 бит
Метод сжатия : С потерями
Размер потока : 128 Мбайт (1%)
Язык : Russian

Аудио #2
Идентификатор : 4353 (0x1101)
Идентификатор меню : 1 (0x1)
Формат : AC-3
Формат/Информация : Audio Coding 3
Расширение режима : CM (complete main)
Параметр Endianness формата : Big
Идентификатор кодека : 129
Продолжительность : 40 м.
Вид битрейта : Постоянный
Битрейт : 448 Кбит/сек
Каналы : 6 каналов
Расположение каналов : Front: L C R, Side: L R, LFE
Частота : 48,0 КГц
Битовая глубина : 16 бит
Метод сжатия : С потерями
Размер потока : 128 Мбайт (1%)
Язык : English

Текст #1
Идентификатор : 4608 (0x1200)
Идентификатор меню : 1 (0x1)
Формат : PGS
Идентификатор кодека : 144
Задержка видео : 16 с.
Язык : Russian

Текст #2
Идентификатор : 4609 (0x1201)
Идентификатор меню : 1 (0x1)
Формат : PGS
Идентификатор кодека : 144
Задержка видео : 16 с.
Язык :




   Похожие торренты   Торрент   Размер 
В этой теме нет новых непрочитанных сообщений. IMAX. Арктика 3D / IMAX. To the Arctic 3D (2012) BDRip 1080p | 3D-Video от HDClub

102 | 9

4.86 ГБ

В этой теме нет новых непрочитанных сообщений. IMAX: Дельфины / IMAX: Dolphins (2000) BDRip 1080p от ExKinoRay

1 | 3

3.92 ГБ

В этой теме нет новых непрочитанных сообщений. IMAX. На глубине морской / IMAX. Under the Sea (2009) BDRip 1080p | 3D-Video

176 | 16

7.29 ГБ

В этой теме нет новых непрочитанных сообщений. IMAX. Арктика 3D / IMAX. To the Arctic 3D (2012) BDRip 1080p от HDClub

12 | 3

5.31 ГБ

В этой теме нет новых непрочитанных сообщений. IMAX. Космическая станция / IMAX. Space Station (2002) BDRip 1080p от NNNB | A

81 | 1

4.37 ГБ

В этой теме нет новых непрочитанных сообщений. IMAX. Космическая станция / IMAX. Space Station (2002) BDRip 1080p | 3D-Video | P1

20 | 2

6.69 ГБ

В этой теме нет новых непрочитанных сообщений. IMAX. Арктика 3D / IMAX. To the Arctic 3D (2012) Blu-Ray 1080p от HDClub | P2

7 | 4

22.99 ГБ




Вы не можете начинать темы
Вы не можете отвечать на сообщения
Вы не можете редактировать свои сообщения
Вы не можете удалять свои сообщения
Вы не можете добавлять вложения

Перейти:  
Для Мосгорсуда, Роскомнадзора и рекламодателей: mosgorsud-torrent[собачка]yandex.ru
 Вход
ppkBB3cker v.2 © 2008-2014 @ PPK
[ Time : 0.517s | 15 Queries | GZIP : Off ]

Торрент трекер RUTOR.IN, Не можете зайти на rutor.org? Какой новый адрес рутор? Какое зеркало рутор? Не работает rutor.org и зеркала? Тогда наш торрент специально для вас. Rutor.in неофициальное зеркало rutor. В случае если у Вас заблокирован rutor или вдруг Вы не можете на него зайти, то Вы без труда сможете скачать бесплатно и без рекламы последние новинки кино, игр, сериалов и прочего у нас, на Rutor.in. Не нужно использовать прокси, чтобы зайти на рутор, достаточно воспользоваться нашим ресурсом. Все новые фильмы, игры, сериалы, книги и музыка за 2013 и 2014 годы через торрент бесплатно. Скачивайте фильмы в хорошем качестве, игры для пк, xbox, playstation без регистрации. У нас вы найдете новые Зарубежные сериалы и Русские сериалы 2013, 2014, 2015 годов. Оставайтесь с нами, качайте любимые фильмы, игры, сериалы, книги и музыку.