img image001 image001 image001 image001 image001 image001 image001 image001 image001 image001 image001 image001 image001 image001 image001

Planets Sun Sun Sun
Статистика раздачи
Автор: Nickolas3434 | Размер: 1.36 ГБ | Добавлен: 16 июн 2014
Раздают: 177    Качают: 17
Скачать торрент
Скачать торрент
Описание торрента

СообщениеДобавлено: 16 июн 2014 

Цвет нации


Оригинальное название: Цвет нацииГод выхода: 2013
Жанр: Документальный, история, фотография



Режиссер: Сергей Нурмамед
Ведущий: Леонид Парфёнов



О фильме:
Фильм расскажет о судьбе и профессиональном подвиге Сергея Прокудина-Горского, даст панораму дореволюционной империи и портреты ее современников. По следам Прокудина-Горского съемочная группа Леонида Парфёнова побывает в 12 регионах. Он — не просто один из родоначальников мировой цветной фотографии, автор первых в Российской империи цветных открыток и издатель журнала «Фотограф-любитель». Еще в начале ХХ века Сергей Михайлович Прокудин-Горский первым осознал исключительную миссию цветной фотосъемки: только фотография «в натуральных цветах» в полной мере сохранит облик того, что может быть утрачено в любой момент. Профессор поставил перед собой фантастическую цель: объездить и запечатлеть на фотокамеру всю Российскую империю, чтобы оставить потомкам полную «коллекцию достопримечательностей». В фильме приняли участие внуки С.М. Прокудина-Горского, проживающие во Франции, а также эксперты Библиотеки Конгресса США.





Страна: Россия, студия «Намедни»
Продолжительность: 01:17:11
Язык: Русский



Качество: HDTVRip
Видео: XviD, 2326 Кбит/с, 704x400, 25 кадр/с
Звук: MP3, 2 ch, 192 Кбит/с


Общее
Полное имя : E:Leonid.Parfyonov.Cvet.nazii.2013.XviD.HDTVRip.avi
Формат : AVI
Формат/Информация : Audio Video Interleave
Размер файла : 1,36 Гбайт
Продолжительность : 1 ч. 17 м.
Общий поток : 2528 Кбит/сек
Программа кодирования : VirtualDubMod 1.5.10.3 | www.virtualdub-fr.org || (build 2550/release)
Библиотека кодирования : VirtualDubMod build 2550/release

Видео
Идентификатор : 0
Формат : MPEG-4 Visual
Профиль формата : Advanced Simple@L5
Параметр BVOP формата : 2
Параметр QPel формата : Нет
Параметр GMC формата : Без точки перехода
Параметр матрицы формата : Выборочная
Идентификатор кодека : XVID
Идентификатор кодека/Подсказка : XviD
Продолжительность : 1 ч. 17 м.
Битрейт : 2326 Кбит/сек
Ширина : 704 пикселя
Высота : 400 пикселей
Соотношение сторон : 16:9
Частота кадров : 25,000 кадров/сек
Цветовое пространство : YUV
Субдискретизация насыщенности : 4:2:0
Битовая глубина : 8 бит
Тип развёртки : Прогрессивная
Метод сжатия : С потерями
Бит/(Пиксели*Кадры) : 0.330
Размер потока : 1,25 Гбайт (92%)
Библиотека кодирования : XviD 73

Аудио
Идентификатор : 1
Формат : MPEG Audio
Версия формата : Version 1
Профиль формата : Layer 3
Идентификатор кодека : 55
Идентификатор кодека/Подсказка : MP3
Продолжительность : 1 ч. 17 м.
Вид битрейта : Постоянный
Битрейт : 192 Кбит/сек
Каналы : 2 канала
Частота : 48,0 КГц
Метод сжатия : С потерями
Размер потока : 106 Мбайт (8%)
Выравнивание : Соединение по промежуткам
Продолжительность промежутка : 40 мс. (1,00 видеокадр)
Время предзагрузки промежутка : 504 мс.
Библиотека кодирования : LAME3.99r
Настройки программы : -m s -V 4 -q 0 -lowpass 18.6 -b 192



   Похожие торренты   Торрент   Размер 
В этой теме нет новых непрочитанных сообщений. Цвет нации (2013) HDTV 1080i

107 | 10

6.94 ГБ

В этой теме нет новых непрочитанных сообщений. Операция «Комбат» / Операция «Цвет нации» [01-16 из 16] (2004) DVDRip

591 | 94

5.8 ГБ

В этой теме нет новых непрочитанных сообщений. Операция "Комбат" / Операция "Цвет нации" [16 серий из 16] (2004) DVD5

27 | 3

7.29 ГБ

В этой теме нет новых непрочитанных сообщений. Цвет Рая / Цвет Бога / Rang-e khoda / The Color of Paradise (1999) DVD5

1 | 2

4.24 ГБ

В этой теме нет новых непрочитанных сообщений. Цвет Рая / Цвет Бога / Rang-e khoda / The Color of Paradise (1999) DVDRip-AVC | P

60 | 21

1.46 ГБ

В этой теме нет новых непрочитанных сообщений. Цвет Рая / Цвет Бога / Rang-e khoda / The Color of Paradise (1999) DVDRip

11 | 3

1.37 ГБ

В этой теме нет новых непрочитанных сообщений. Агент Хамилтон: В интересах нации / Гамильтон: В интересах нации / Hamilton - I nationens intresse (2012) HDRip | Лицензия

0 | 17

742.89 МБ




Вы не можете начинать темы
Вы не можете отвечать на сообщения
Вы не можете редактировать свои сообщения
Вы не можете удалять свои сообщения
Вы не можете добавлять вложения

Перейти:  
Для Мосгорсуда, Роскомнадзора и рекламодателей: mosgorsud-torrent[собачка]yandex.ru
 Вход
ppkBB3cker v.2 © 2008-2014 @ PPK
[ Time : 0.158s | 16 Queries | GZIP : Off ]

Торрент трекер RUTOR.IN, Не можете зайти на rutor.org? Какой новый адрес рутор? Какое зеркало рутор? Не работает rutor.org и зеркала? Тогда наш торрент специально для вас. Rutor.in неофициальное зеркало rutor. В случае если у Вас заблокирован rutor или вдруг Вы не можете на него зайти, то Вы без труда сможете скачать бесплатно и без рекламы последние новинки кино, игр, сериалов и прочего у нас, на Rutor.in. Не нужно использовать прокси, чтобы зайти на рутор, достаточно воспользоваться нашим ресурсом. Все новые фильмы, игры, сериалы, книги и музыка за 2013 и 2014 годы через торрент бесплатно. Скачивайте фильмы в хорошем качестве, игры для пк, xbox, playstation без регистрации. У нас вы найдете новые Зарубежные сериалы и Русские сериалы 2013, 2014, 2015 годов. Оставайтесь с нами, качайте любимые фильмы, игры, сериалы, книги и музыку.
cron