img image001 image001 image001 image001 image001 image001 image001 image001 image001 image001 image001 image001 image001 image001 image001

Planets Sun Sun Sun
Статистика раздачи
Автор: Nickolas3434 | Размер: 6.94 ГБ | Добавлен: 16 июн 2014
Раздают: 107    Качают: 10
Скачать торрент
Скачать торрент
Описание торрента

СообщениеДобавлено: 16 июн 2014 

Цвет нации


Оригинальное название: Цвет нацииГод выхода: 2013
Жанр: Документальный, история, фотография



Режиссер: Сергей Нурмамед
Ведущий: Леонид Парфёнов



О фильме:
Фильм расскажет о судьбе и профессиональном подвиге Сергея Прокудина-Горского, даст панораму дореволюционной империи и портреты ее современников. По следам Прокудина-Горского съемочная группа Леонида Парфёнова побывает в 12 регионах. Он — не просто один из родоначальников мировой цветной фотографии, автор первых в Российской империи цветных открыток и издатель журнала «Фотограф-любитель». Еще в начале ХХ века Сергей Михайлович Прокудин-Горский первым осознал исключительную миссию цветной фотосъемки: только фотография «в натуральных цветах» в полной мере сохранит облик того, что может быть утрачено в любой момент. Профессор поставил перед собой фантастическую цель: объездить и запечатлеть на фотокамеру всю Российскую империю, чтобы оставить потомкам полную «коллекцию достопримечательностей». В фильме приняли участие внуки С.М. Прокудина-Горского, проживающие во Франции, а также эксперты Библиотеки Конгресса США.





Страна: Россия, студия «Намедни»
Продолжительность: 01:17:11
Язык: Русский



Качество: HDTV 1080i
Видео: MPEG-4 AVC, 12 Мбит/с, 1920x1080, 25 кадр/с
Звук: MP2, 2 ch, 192 Кбит/с


Общее
Идентификатор : 1 (0x1)
Полное имя : E:DownloadLeonid.Parfyonov.Cvet.nazii.2013.HDTV.1080i.ts
Формат : MPEG-TS
Размер файла : 6,94 Гбайт
Продолжительность : 1 ч. 17 м.
Режим общего битрейта : Переменный
Общий поток : 12,9 Мбит/сек

Видео
Идентификатор : 1603 (0x643)
Идентификатор меню : 1 (0x1)
Формат : AVC
Формат/Информация : Advanced Video Codec
Профиль формата : High@L4.0
Параметр CABAC формата : Да
Параметр ReFrames формата : 3 кадра
Параметр GOP формата : M=4, N=32
Идентификатор кодека : 27
Продолжительность : 1 ч. 17 м.
Битрейт : 12,0 Мбит/сек
Ширина : 1920 пикселей
Высота : 1080 пикселей
Соотношение сторон : 16:9
Частота кадров : 25,000 кадров/сек
Стандарт вещания : Component
Цветовое пространство : YUV
Субдискретизация насыщенности : 4:2:0
Битовая глубина : 8 бит
Тип развёртки : Чересстрочная
Порядок развёртки : Верхнее поле первое
Бит/(Пиксели*Кадры) : 0.232
Размер потока : 6,49 Гбайт (94%)
Основные цвета : BT.709
Характеристики трансфера : BT.709
Коэффициенты матрицы : BT.709

Аудио
Идентификатор : 2603 (0xA2B)
Идентификатор меню : 1 (0x1)
Формат : MPEG Audio
Версия формата : Version 1
Профиль формата : Layer 2
Идентификатор кодека : 3
Продолжительность : 1 ч. 17 м.
Вид битрейта : Постоянный
Битрейт : 192 Кбит/сек
Каналы : 2 канала
Частота : 48,0 КГц
Метод сжатия : С потерями
Размер потока : 106 Мбайт (1%)
Язык : Russian


Релиз-группа:



   Похожие торренты   Торрент   Размер 
В этой теме нет новых непрочитанных сообщений. Цвет нации (2013) HDTVRip

177 | 17

1.36 ГБ

В этой теме нет новых непрочитанных сообщений. Эрмитаж. Сокровища нации (2014) HDTV 1080i от Generalfilm

88 | 10

3.21 ГБ

В этой теме нет новых непрочитанных сообщений. Операция «Комбат» / Операция «Цвет нации» [01-16 из 16] (2004) DVDRip

820 | 144

5.8 ГБ

В этой теме нет новых непрочитанных сообщений. Операция "Комбат" / Операция "Цвет нации" [16 серий из 16] (2004) DVD5

27 | 3

7.29 ГБ

В этой теме нет новых непрочитанных сообщений. Цвет Рая / Цвет Бога / Rang-e khoda / The Color of Paradise (1999) DVDRip

11 | 3

1.37 ГБ

В этой теме нет новых непрочитанных сообщений. Цвет Рая / Цвет Бога / Rang-e khoda / The Color of Paradise (1999) DVDRip-AVC | P

60 | 21

1.46 ГБ

В этой теме нет новых непрочитанных сообщений. Цвет Рая / Цвет Бога / Rang-e khoda / The Color of Paradise (1999) DVD5

1 | 2

4.24 ГБ




Вы не можете начинать темы
Вы не можете отвечать на сообщения
Вы не можете редактировать свои сообщения
Вы не можете удалять свои сообщения
Вы не можете добавлять вложения

Перейти:  
Для Мосгорсуда, Роскомнадзора и рекламодателей: mosgorsud-torrent[собачка]yandex.ru
 Вход
ppkBB3cker v.2 © 2008-2014 @ PPK
[ Time : 0.053s | 15 Queries | GZIP : Off ]

Торрент трекер RUTOR.IN, Не можете зайти на rutor.org? Какой новый адрес рутор? Какое зеркало рутор? Не работает rutor.org и зеркала? Тогда наш торрент специально для вас. Rutor.in неофициальное зеркало rutor. В случае если у Вас заблокирован rutor или вдруг Вы не можете на него зайти, то Вы без труда сможете скачать бесплатно и без рекламы последние новинки кино, игр, сериалов и прочего у нас, на Rutor.in. Не нужно использовать прокси, чтобы зайти на рутор, достаточно воспользоваться нашим ресурсом. Все новые фильмы, игры, сериалы, книги и музыка за 2013 и 2014 годы через торрент бесплатно. Скачивайте фильмы в хорошем качестве, игры для пк, xbox, playstation без регистрации. У нас вы найдете новые Зарубежные сериалы и Русские сериалы 2013, 2014, 2015 годов. Оставайтесь с нами, качайте любимые фильмы, игры, сериалы, книги и музыку.