img image001 image001 image001 image001 image001 image001 image001 image001 image001 image001 image001 image001 image001 image001 image001

Planets Sun Sun Sun
Статистика раздачи
Автор: Nickolas3434 | Размер: 1.03 ГБ | Добавлен: 21 июн 2014
Раздают: 135    Качают: 15
Скачать торрент
Скачать торрент
Описание торрента

СообщениеДобавлено: 21 июн 2014 

Информация о фильме
Название: Мегазаводы: Грузовики Мерседес
Оригинальное название: Megafactories: Mercedes Overhaul
Год выхода: 2011
Жанр: научно-популярные, техника
Режиссер: National Geographic
В ролях: конструкторы, инженеры, рабочие

О фильме:
Познакомьтесь с новой версией грузовиков Mercedes "Актрос" который создается по заказу, при этом завод Мерседес-Бенс выпускает один грузовик каждые две минуты.
Страна: США
Продолжительность: 00:45:00
Перевод: профессиональный (одноголосный)

Файл
Кодек: H.264
Качество: HDTVRip 720p
Видео: MPEG-4 / AVC, 1280x720(16:9), 25 fps ~ 3030 Kbps
Звук: АС3, 48 KHz 2 ch ~ 192 Kb/s
Субтитры: отсутствуют

Общее
Уникальный идентификатор : 247873866287890418239834478721956545391 (0xBA7AC528A5E078E78C43EF290C73836F)
Полное имя : Q:TorFMegazavody.Gruzoviki.Mercedes.2011.x264.HDTVRip.720p.mkv
Формат : Matroska
Версия формата : Version 2
Размер файла : 1,03 Гбайт
Продолжительность : 44 м.
Общий поток : 3291 Кбит/сек
Дата кодирования : UTC 2012-05-27 01:17:29
Программа кодирования : mkvmerge v5.5.0 ('Healer') built on Apr 6 2012 21:43:24
Библиотека кодирования : libebml v1.2.3 + libmatroska v1.3.0

Видео
Идентификатор : 1
Формат : AVC
Формат/Информация : Advanced Video Codec
Профиль формата : High@L3.1
Параметр CABAC формата : Да
Параметр ReFrames формата : 5 кадров
Режим смешивания : Header stripping
Идентификатор кодека : V_MPEG4/ISO/AVC
Продолжительность : 44 м.
Битрейт : 3033 Кбит/сек
Ширина : 1280 пикселей
Высота : 720 пикселей
Соотношение сторон : 16:9
Соотношение сторон в оригинале : 16:9
Режим частоты кадров : Переменный
Частота кадров : 25,000 кадров/сек
Цветовое пространство : YUV
Субдискретизация насыщенности : 4:2:0
Битовая глубина : 8 бит
Тип развёртки : Прогрессивная
Бит/(Пиксели*Кадры) : 0.132
Размер потока : 976 Мбайт (92%)
Библиотека кодирования : x264 core 120
Настройки программы : cabac=1 / ref=5 / deblock=1:0:0 / analyse=0x3:0x113 / me=umh / subme=8 / psy=1 / psy_rd=1.00:0.00 / mixed_ref=1 / me_range=16 / chroma_me=1 / trellis=1 / 8x8dct=1 / cqm=0 / deadzone=21,11 / fast_pskip=1 / chroma_qp_offset=-2 / threads=3 / sliced_threads=0 / nr=0 / decimate=1 / interlaced=0 / bluray_compat=0 / constrained_intra=0 / bframes=3 / b_pyramid=2 / b_adapt=2 / b_bias=0 / direct=3 / weightb=1 / open_gop=0 / weightp=2 / keyint=250 / keyint_min=25 / scenecut=40 / intra_refresh=0 / rc_lookahead=50 / rc=crf / mbtree=1 / crf=21.0 / qcomp=0.60 / qpmin=3 / qpmax=69 / qpstep=4 / ip_ratio=1.40 / aq=1:1.00
Default : Да
Forced : Нет
Основные цвета : BT.709-5, BT.1361, IEC 61966-2-4, SMPTE RP177
Характеристики трансфера : BT.709-5, BT.1361
Коэффициенты матрицы : BT.709-5, BT.1361, IEC 61966-2-4 709, SMPTE RP177

Аудио
Идентификатор : 2
Формат : AC-3
Формат/Информация : Audio Coding 3
Расширение режима : CM (complete main)
Режим смешивания : Header stripping
Идентификатор кодека : A_AC3
Продолжительность : 44 м.
Вид битрейта : Постоянный
Битрейт : 192 Кбит/сек
Каналы : 2 канала
Расположение каналов : Front: L R
Частота : 48,0 КГц
Битовая глубина : 16 бит
Метод сжатия : С потерями
Размер потока : 61,8 Мбайт (6%)
Default : Да
Forced : Нет





   Похожие торренты   Торрент   Размер 
В этой теме нет новых непрочитанных сообщений. National Geographic. Мегазаводы: Грузовики Мерседес / National Geographic. Megafactories: Mercedes Overhaul (2011) SATRip

8 | 3

621.43 МБ

В этой теме нет новых непрочитанных сообщений. National Geographic : Мегазаводы: Мерседес SLS AMG / Megafactories: Mercedes SLS AMG (2010) SATRip by Alex Smit

9 | 3

661.47 МБ

В этой теме нет новых непрочитанных сообщений. Мегазаводы: Ягуар XJ / Megafactories: Jaguar XJ (2011) HDTVRip 720p | P1

65 | 15

1.33 ГБ

В этой теме нет новых непрочитанных сообщений. Мегазаводы: Суперавтомобили. Порше-911 / Megafactories: Supercars. Porsche 911 (2011) HDTVRip 720p | P1

66 | 32

968.41 МБ

В этой теме нет новых непрочитанных сообщений. Мегазаводы. Суперавтомобили: Корвет ZR1 / Megafactories. Supercars: Corvette ZR1 (2011) HDTVRip 720p | P1

47 | 10

1 ГБ

В этой теме нет новых непрочитанных сообщений. Мегазаводы: Истребитель Еврофайтер Тайфун / Megafactories: Eurofighter Typhoon (2011) HDTVRip 720p | P1

88 | 13

1.18 ГБ

В этой теме нет новых непрочитанных сообщений. Мегазаводы: Суперавтомобили. Ламборгини Авентадор / Megafactories: Supercars. Lamborghini Aventador (2011) HDTVRip 720p | P1

154 | 47

935.21 МБ




Вы не можете начинать темы
Вы не можете отвечать на сообщения
Вы не можете редактировать свои сообщения
Вы не можете удалять свои сообщения
Вы не можете добавлять вложения

Перейти:  
Для Мосгорсуда, Роскомнадзора и рекламодателей: mosgorsud-torrent[собачка]yandex.ru
 Вход
ppkBB3cker v.2 © 2008-2014 @ PPK
[ Time : 0.038s | 15 Queries | GZIP : Off ]

Торрент трекер RUTOR.IN, Не можете зайти на rutor.org? Какой новый адрес рутор? Какое зеркало рутор? Не работает rutor.org и зеркала? Тогда наш торрент специально для вас. Rutor.in неофициальное зеркало rutor. В случае если у Вас заблокирован rutor или вдруг Вы не можете на него зайти, то Вы без труда сможете скачать бесплатно и без рекламы последние новинки кино, игр, сериалов и прочего у нас, на Rutor.in. Не нужно использовать прокси, чтобы зайти на рутор, достаточно воспользоваться нашим ресурсом. Все новые фильмы, игры, сериалы, книги и музыка за 2013 и 2014 годы через торрент бесплатно. Скачивайте фильмы в хорошем качестве, игры для пк, xbox, playstation без регистрации. У нас вы найдете новые Зарубежные сериалы и Русские сериалы 2013, 2014, 2015 годов. Оставайтесь с нами, качайте любимые фильмы, игры, сериалы, книги и музыку.