img image001 image001 image001 image001 image001 image001 image001 image001 image001 image001 image001 image001 image001 image001 image001

Planets Sun Sun Sun
Статистика раздачи
Автор: Nickolas3434 | Размер: 1.75 ГБ | Добавлен: 27 июн 2014
Раздают: 413    Качают: 32
Скачать торрент
Скачать торрент
Описание торрента

СообщениеДобавлено: 27 июн 2014 

Путешествие к ядру Земли
Down to the Earth's Core

Год выпуска: 2011
Страна: США, National Geographic Channel
Жанр: Научно-популярный, документальный, геология
Перевод: Профессиональный одноголосый



Существует мир настолько невероятный и опасный, что никто еще не предпринимал попыток его исследовать. И находиться он не в далеком космосе, и даже не на Земле, а в ее недрах. Нам кажется что мы ходим по твердой земле, но если мы осмелимся отправиться в путешествие к центру нашей планеты мы найдем там иной мир, полный странных существ, которые могут жить только под землей, мы увидим как прямо перед нашими глазами образуется золото, ощутим на себе жар в тысячу градусов в жерле вулкана, найдем алмазы на глубине двухсот сорока километров и гигантские вихри из жидкого железа; и наконец на глубине более шести тысяч километров мы обнаружим работающее сердце нашей планеты.
Исследуйте удивительный мир, который находится у нас под ногами. Компьютерная графика перенесет вас в наименее изученное место планеты - к её ядру. Так глубоко и так далеко ещё никто не забирался!



Информация о файле:
Продолжительность: 01:29:59
Качество: HDTVRip 720p
Формат: MKV
Видео: H.264, 1280x720, (16:9), 2373 Кбит/сек, 25,000 кадров/сек
Аудио: Русский (MP3, 2 ch, 192 Кбит/с); Английский (MP2, 2 ch, 160 Кбит/с)
Благодарность: Dart_Vayder
Общее
Уникальный идентификатор : 225312023248767263388730775727284050273 (0xA9818469E00D51488D1E037A3C2E5961)
Полное имя : F:Down to the Earth's Core.mkv
Формат : Matroska
Версия формата : Version 2
Размер файла : 1,75 Гбайт
Продолжительность : 1 ч. 29 м.
Общий поток : 2782 Кбит/сек
Дата кодирования : UTC 2012-06-03 15:51:04
Программа кодирования : mkvmerge v5.3.0 ('I could have danced') built on Mar 4 2012 19:18:32
Библиотека кодирования : libebml v1.2.3 + libmatroska v1.3.0

Видео
Идентификатор : 1
Формат : AVC
Формат/Информация : Advanced Video Codec
Профиль формата : High@L4.1
Параметр CABAC формата : Да
Параметр ReFrames формата : 5 кадров
Режим смешивания : Header stripping
Идентификатор кодека : V_MPEG4/ISO/AVC
Продолжительность : 1 ч. 29 м.
Битрейт : 2374 Кбит/сек
Ширина : 1280 пикселей
Высота : 720 пикселей
Соотношение сторон : 16:9
Частота кадров : 25,000 кадров/сек
Цветовое пространство : YUV
Субдискретизация насыщенности : 4:2:0
Битовая глубина : 8 бит
Тип развёртки : Прогрессивная
Бит/(Пиксели*Кадры) : 0.103
Размер потока : 1,49 Гбайт (85%)
Библиотека кодирования : x264 core 124 r2197 69a0443
Настройки программы : cabac=1 / ref=5 / deblock=1:0:0 / analyse=0x3:0x113 / me=umh / subme=8 / psy=1 / psy_rd=1.00:0.00 / mixed_ref=1 / me_range=16 / chroma_me=1 / trellis=1 / 8x8dct=1 / cqm=0 / deadzone=21,11 / fast_pskip=1 / chroma_qp_offset=-2 / threads=12 / sliced_threads=0 / nr=0 / decimate=1 / interlaced=0 / bluray_compat=0 / constrained_intra=0 / bframes=3 / b_pyramid=2 / b_adapt=2 / b_bias=0 / direct=3 / weightb=1 / open_gop=0 / weightp=2 / keyint=250 / keyint_min=25 / scenecut=40 / intra_refresh=0 / rc_lookahead=50 / rc=crf / mbtree=1 / crf=21.0 / qcomp=0.60 / qpmin=0 / qpmax=69 / qpstep=4 / ip_ratio=1.40 / aq=1:1.00
Язык : English
Default : Да
Forced : Нет

Аудио #1
Идентификатор : 2
Формат : MPEG Audio
Версия формата : Version 1
Профиль формата : Layer 2
Режим : Joint stereo
Режим смешивания : Header stripping
Идентификатор кодека : A_MPEG/L2
Идентификатор кодека/Подсказка : MP2
Продолжительность : 1 ч. 29 м.
Вид битрейта : Постоянный
Битрейт : 160 Кбит/сек
Каналы : 2 канала
Частота : 48,0 КГц
Метод сжатия : С потерями
Размер потока : 103 Мбайт (6%)
Язык : English
Default : Нет
Forced : Нет

Аудио #2
Идентификатор : 3
Формат : MPEG Audio
Версия формата : Version 1
Профиль формата : Layer 3
Режим : Joint stereo
Режим смешивания : Header stripping
Идентификатор кодека : A_MPEG/L3
Идентификатор кодека/Подсказка : MP3
Продолжительность : 1 ч. 29 м.
Вид битрейта : Постоянный
Битрейт : 192 Кбит/сек
Каналы : 2 канала
Частота : 48,0 КГц
Метод сжатия : С потерями
Размер потока : 124 Мбайт (7%)
Язык : Russian
Default : Да
Forced : Нет








   Похожие торренты   Торрент   Размер 
В этой теме нет новых непрочитанных сообщений. National Geographic : Путешествие к ядру Земли / Down to the Earth's core (2011) SATRip by Alex Smit

50 | 7

1.28 ГБ

В этой теме нет новых непрочитанных сообщений. Путешествие к центру земли / At the Earth's Core (1976) BDRip 720p by msltel | P

7 | 2

4.2 ГБ

В этой теме нет новых непрочитанных сообщений. Путешествие к центру Земли / At the Earth's Core (1976) BDRip от HQCLUB

22 | 4

1.45 ГБ

В этой теме нет новых непрочитанных сообщений. Необыкновенное путешествие к центру Земли / At The Earth's Core (1976) DVDRip от Кинорадиомагия | P

197 | 17

1.37 ГБ

В этой теме нет новых непрочитанных сообщений. Путешествие к центру Земли / At the Earth's Core (1976) DVDRip от KINOREAKTOR (Sheikn)

3 | 9

1.49 ГБ

В этой теме нет новых непрочитанных сообщений. С точки зрения науки: Ядро Земли / National Geographic: Earth's Core (2005) TVRip

2 | 25

1.14 ГБ

В этой теме нет новых непрочитанных сообщений. Путешествие К Центру Земли 3D / Journey to the Center of the Earth 3D (2008) BDRip 720p | 3D-video | от PskovLine

460 | 22

4.26 ГБ




Вы не можете начинать темы
Вы не можете отвечать на сообщения
Вы не можете редактировать свои сообщения
Вы не можете удалять свои сообщения
Вы не можете добавлять вложения

Перейти:  
Для Мосгорсуда, Роскомнадзора и рекламодателей: mosgorsud-torrent[собачка]yandex.ru
 Вход
ppkBB3cker v.2 © 2008-2014 @ PPK
[ Time : 0.026s | 18 Queries | GZIP : Off ]

cron