img image001 image001 image001 image001 image001 image001 image001 image001 image001 image001 image001 image001 image001 image001 image001

Planets Sun Sun Sun
Статистика раздачи
Автор: Nickolas3434 | Размер: 1.37 ГБ | Добавлен: 30 июн 2014
Раздают: 77    Качают: 18
Скачать торрент
Скачать торрент
Описание торрента

СообщениеДобавлено: 30 июн 2014 

Информация о фильме
Название: Убойные серферы
Оригинальное название: Storm Surfers 3D
Год выхода: 2012
Жанр: Документальный, приключения
Режиссер: Джастин МакМиллан, Кристофер Нелиус
В ролях: Том Кэрролл, Росс Кларк-Джонс, Бен Мэтсон

О фильме:
Проект, который демонстрирует вершины мастерства двух лучших серферов планеты. Для двукратного чемпиона мира Тома Кэррола и его ближайшего друга и соперника Росса Кларка-Джоунса океанские штормовые волны — не просто увлечение длиною в жизнь. Это вызов, который они бросают своему собственному страху. Но однажды метеоролог, гуру всех австралийских серфингистов, Бэн Мэтсон рассказывает им о волне, которую невозможно победить. Полет на волне высотой с небоскреб и длиной в расстояние между Москвой и Питером? Как подготовиться к такому? Мастера утверждают, что залог успеха не только в техническом совершенстве, но и в серьезной интеллектуальной подготовке. Между тем, человек — это всего-навсего человек. Инстинкт самосохранения нельзя победить. На ваших глазах Том и Росс пытаются совершить настоящий подвиг.


Страна: Австралия
Студия: 6ixty Foot Films, Firelight Productions, Red Bull Media House
Продолжительность: 01:31:06
Перевод: Профессиональный двухголосый

Файл
Кодек: XviD
Качество: HDTVRip
Видео: 1690 Кбит/с, 720x400, 25.000 кадр/с
Звук: Русский (АС3, 6 ch, 448 Кбит/с)

Семпл


Общее
Полное имя : Ubojnye.serfery.2012.HDTVRip.MediaClub.avi
Формат : AVI
Формат/Информация : Audio Video Interleave
Размер файла : 1,37 Гбайт
Продолжительность : 1 ч. 31 м.
Общий поток : 2147 Кбит/сек
Название фильма : MediaClub
Программа кодирования : VirtualDubMod 1.5.10.2 (build 2540/release)
Библиотека кодирования : VirtualDubMod build 2540/release

Видео
Идентификатор : 0
Формат : MPEG-4 Visual
Профиль формата : Advanced Simple@L5
Параметр BVOP формата : 2
Параметр QPel формата : Нет
Параметр GMC формата : Без точки перехода
Параметр матрицы формата : Default (MPEG)
Идентификатор кодека : XVID
Идентификатор кодека/Подсказка : XviD
Продолжительность : 1 ч. 31 м.
Битрейт : 1690 Кбит/сек
Ширина : 720 пикселей
Высота : 400 пикселей
Соотношение сторон : 16:9
Частота кадров : 25,000 кадров/сек
Цветовое пространство : YUV
Субдискретизация насыщенности : 4:2:0
Битовая глубина : 8 бит
Тип развёртки : Прогрессивная
Метод сжатия : С потерями
Бит/(Пиксели*Кадры) : 0.235
Размер потока : 1,08 Гбайт (79%)
Библиотека кодирования : XviD 65

Аудио
Идентификатор : 1
Формат : AC-3
Формат/Информация : Audio Coding 3
Расширение режима : CM (complete main)
Параметр Endianness формата : Big
Идентификатор кодека : 2000
Продолжительность : 1 ч. 31 м.
Вид битрейта : Постоянный
Битрейт : 448 Кбит/сек
Каналы : 6 каналов
Расположение каналов : Front: L C R, Side: L R, LFE
Частота : 48,0 КГц
Битовая глубина : 16 бит
Метод сжатия : С потерями
Размер потока : 292 Мбайт (21%)
Выравнивание : Разделение по промежуткам
Продолжительность промежутка : 40 мс. (1,00 видеокадр)
Время предзагрузки промежутка : 500 мс.


Релиз от:



   Похожие торренты   Торрент   Размер 
В этой теме нет новых непрочитанных сообщений. Убойные серферы / Storm Surfers 3D (2012) HDTVRip-AVC от MediaClub | P2

48 | 10

2.23 ГБ

В этой теме нет новых непрочитанных сообщений. Убойные серферы / Storm Surfers 3D (2012) HDTVRip 720p от MediaClub | P2

35 | 14

3.34 ГБ

В этой теме нет новых непрочитанных сообщений. Убойные серферы / Storm Surfers 3D (2012) BDRip 1080p | 3D-Video | halfOU | Звук с TVRip

24 | 9

14.65 ГБ

В этой теме нет новых непрочитанных сообщений. VA - Storm Riders [Compiled by Mind Storm] (2012) FLAC

1 | 4

1.07 ГБ

В этой теме нет новых непрочитанных сообщений. Subway Surfers (2012) PC

12546 | 329

22.41 МБ

В этой теме нет новых непрочитанных сообщений. Subway Surfers (2012) PC

6630 | 450

19.33 МБ

В этой теме нет новых непрочитанных сообщений. VA - Storm Riders - Compiled by Mind Storm (2012) MP3

1 | 2

357.99 МБ




Вы не можете начинать темы
Вы не можете отвечать на сообщения
Вы не можете редактировать свои сообщения
Вы не можете удалять свои сообщения
Вы не можете добавлять вложения

Перейти:  
Для Мосгорсуда, Роскомнадзора и рекламодателей: mosgorsud-torrent[собачка]yandex.ru
 Вход
ppkBB3cker v.2 © 2008-2014 @ PPK
[ Time : 0.040s | 14 Queries | GZIP : Off ]

Торрент трекер RUTOR.IN, Не можете зайти на rutor.org? Какой новый адрес рутор? Какое зеркало рутор? Не работает rutor.org и зеркала? Тогда наш торрент специально для вас. Rutor.in неофициальное зеркало rutor. В случае если у Вас заблокирован rutor или вдруг Вы не можете на него зайти, то Вы без труда сможете скачать бесплатно и без рекламы последние новинки кино, игр, сериалов и прочего у нас, на Rutor.in. Не нужно использовать прокси, чтобы зайти на рутор, достаточно воспользоваться нашим ресурсом. Все новые фильмы, игры, сериалы, книги и музыка за 2013 и 2014 годы через торрент бесплатно. Скачивайте фильмы в хорошем качестве, игры для пк, xbox, playstation без регистрации. У нас вы найдете новые Зарубежные сериалы и Русские сериалы 2013, 2014, 2015 годов. Оставайтесь с нами, качайте любимые фильмы, игры, сериалы, книги и музыку.