img image001 image001 image001 image001 image001 image001 image001 image001 image001 image001 image001 image001 image001 image001 image001

Planets Sun Sun Sun
Статистика раздачи
Автор: Nickolas3434 | Размер: 12.35 ГБ | Добавлен: 08 авг 2014
Раздают: 21    Качают: 10
Скачать торрент
Скачать торрент
Описание торрента

СообщениеДобавлено: 08 авг 2014 

Информация о фильме

Название: Медведи
Оригинальное название: Bears (DisneyNature: Bears)
Год выпуска: 2014
Жанр: Документальный, научно-познавательный, природа, фауна
Выпущено: США, Disneynature
Режиссер: Аластер Фовергилл, Кит Шолей
В ролях: Джон С. Райлли
О фильме: Документальная лента следует за семьёй медведей на Аляске по мере того, как растущие медвежата начинают постигать главные уроки жизни.

Файл

Качество: BDRip (1080p)
Видео: MPEG-4 AVC, 20999 Кбит/с, 1920x1080, 23.976 кадр/с
Аудио: Русский (AC3, 6 ch, 640 Кбит/с), английский (DTS, 6 ch, 1509 Кбит/с)
Размер: 12.35 ГБ
Продолжительность: 01:17:50
Перевод: Дублированный
Субтитры: Русские, английские
Сохранены оригинальные чаптеры как на Blu-Ray.
Озвучивание: Документальный дубляж (лицензия)
x264 [info]: frame I:683 Avg QP:17.22 size:383023
x264 [info]: frame P:28475 Avg QP:19.57 size:208247
x264 [info]: frame B:82612 Avg QP:22.23 size: 73115
x264 [info]: consecutive B-frames: 1.6% 3.4% 18.3% 41.7% 16.1% 16.2% 1.6% 0.5% 0.3% 0.4%
x264 [info]: mb I I16..4: 5.5% 90.6% 3.8%
x264 [info]: mb P I16..4: 1.0% 35.4% 1.1% P16..4: 21.7% 19.8% 9.6% 5.1% 1.0% skip: 5.4%
x264 [info]: mb B I16..4: 0.4% 13.5% 0.2% B16..8: 29.8% 15.3% 2.6% direct: 9.6% skip:28.7% L0:31.1% L1:33.0% BI:35.9%
x264 [info]: 8x8 transform intra:95.0% inter:72.5%
x264 [info]: direct mvs spatial:96.3% temporal:3.7%
x264 [info]: coded y,uvDC,uvAC intra: 92.5% 91.1% 66.3% inter: 41.6% 36.3% 17.8%
x264 [info]: i16 v,h,dc,p: 22% 22% 7% 49%
x264 [info]: i8 v,h,dc,ddl,ddr,vr,hd,vl,hu: 8% 18% 11% 7% 9% 8% 12% 10% 16%
x264 [info]: i4 v,h,dc,ddl,ddr,vr,hd,vl,hu: 9% 15% 7% 7% 14% 11% 15% 9% 14%
x264 [info]: i8c dc,h,v,p: 45% 28% 12% 15%
x264 [info]: Weighted P-Frames: Y:1.4% UV:0.6%
x264 [info]: ref P L0: 51.4% 16.1% 25.0% 6.0% 1.5% 0.0%
x264 [info]: ref B L0: 91.6% 7.1% 1.3%
x264 [info]: ref B L1: 95.9% 4.1%
x264 [info]: kb/s:20990.59


Общее
Уникальный идентификатор : 217080824738353743904346145090584417555 (0xA3503EFE8C2BE4BDB1C899BE49879513)
Полное имя : D:Загрузки Bears.2014.x264.BDRip.(1080p).ExKinoRay.mkv
Формат : Matroska
Версия формата : Version 2
Размер файла : 12,3 Гбайт
Продолжительность : 1 ч. 17 м.
Общий поток : 22,7 Мбит/сек
Название фильма : Медведи.2014.Rip by: ollan
Дата кодирования : UTC 2014-08-07 02:41:31
Программа кодирования : mkvmerge v5.6.0 ('Kenya Kane') built on May 27 2012 16:44:04
Библиотека кодирования : libebml v1.2.3 + libmatroska v1.3.0

Видео
Идентификатор : 1
Формат : AVC
Формат/Информация : Advanced Video Codec
Профиль формата : High@L4.1
Параметр CABAC формата : Да
Параметр ReFrames формата : 4 кадра
Идентификатор кодека : V_MPEG4/ISO/AVC
Продолжительность : 1 ч. 17 м.
Битрейт : 21,0 Мбит/сек
Ширина : 1920 пикселей
Высота : 1080 пикселей
Соотношение сторон : 16:9
Режим частоты кадров : Постоянный
Частота кадров : 23,976 кадра/сек
Цветовое пространство : YUV
Субдискретизация насыщенности : 4:2:0
Битовая глубина : 8 бит
Тип развёртки : Прогрессивная
Бит/(Пиксели*Кадры) : 0.422
Размер потока : 10,9 Гбайт (89%)
Библиотека кодирования : x264 core 125 r2200 999b753
Настройки программы : cabac=1 / ref=4 / deblock=1:-3:-3 / analyse=0x3:0x133 / me=umh / subme=11 / psy=1 / psy_rd=1.00:0.10 / mixed_ref=1 / me_range=32 / chroma_me=1 / trellis=2 / 8x8dct=1 / cqm=0 / deadzone=21,11 / fast_pskip=0 / chroma_qp_offset=-3 / threads=12 / lookahead_threads=2 / sliced_threads=0 / nr=0 / decimate=0 / interlaced=0 / bluray_compat=0 / constrained_intra=0 / bframes=9 / b_pyramid=2 / b_adapt=2 / b_bias=0 / direct=3 / weightb=1 / open_gop=0 / weightp=2 / keyint=240 / keyint_min=23 / scenecut=40 / intra_refresh=0 / rc_lookahead=40 / rc=2pass / mbtree=1 / bitrate=20999 / ratetol=1.0 / qcomp=0.60 / qpmin=0 / qpmax=69 / qpstep=4 / cplxblur=20.0 / qblur=0.5 / ip_ratio=1.40 / aq=1:1.00
Язык : English
Default : Да
Forced : Нет

Аудио #1
Идентификатор : 2
Формат : AC-3
Формат/Информация : Audio Coding 3
Расширение режима : CM (complete main)
Параметр Endianness формата : Big
Идентификатор кодека : A_AC3
Продолжительность : 1 ч. 17 м.
Вид битрейта : Постоянный
Битрейт : 640 Кбит/сек
Каналы : 6 каналов
Расположение каналов : Front: L C R, Side: L R, LFE
Частота : 48,0 КГц
Битовая глубина : 16 бит
Метод сжатия : С потерями
Размер потока : 356 Мбайт (3%)
Заголовок : Дублированный (Лицензия)
Язык : Russian
Default : Да
Forced : Нет

Аудио #2
Идентификатор : 3
Формат : DTS
Формат/Информация : Digital Theater Systems
Режим : 16
Параметр Endianness формата : Big
Идентификатор кодека : A_DTS
Продолжительность : 1 ч. 17 м.
Вид битрейта : Постоянный
Битрейт : 1509 Кбит/сек
Каналы : 6 каналов
Расположение каналов : Front: L C R, Side: L R, LFE
Частота : 48,0 КГц
Битовая глубина : 24 бит
Метод сжатия : С потерями
Размер потока : 840 Мбайт (7%)
Язык : English
Default : Нет
Forced : Нет

Текст #1
Идентификатор : 4
Формат : UTF-8
Идентификатор кодека : S_TEXT/UTF8
Идентификатор кодека/Информация : UTF-8 Plain Text
Язык : Russian
Default : Нет
Forced : Нет

Текст #2
Идентификатор : 5
Формат : UTF-8
Идентификатор кодека : S_TEXT/UTF8
Идентификатор кодека/Информация : UTF-8 Plain Text
Язык : English
Default : Нет
Forced : Нет

Меню
00:00:00.000 : en:Chapter 01
00:03:18.698 : en:Chapter 02
00:10:35.968 : en:Chapter 03
00:15:30.095 : en:Chapter 04
00:19:00.472 : en:Chapter 05
00:24:23.545 : en:Chapter 06
00:28:12.273 : en:Chapter 07
00:37:12.313 : en:Chapter 08
00:41:30.237 : en:Chapter 09
00:47:40.524 : en:Chapter 10
00:51:29.169 : en:Chapter 11
00:54:56.584 : en:Chapter 12
01:01:01.115 : en:Chapter 13
01:04:45.047 : en:Chapter 14
01:10:30.392 : en:Chapter 15
01:12:44.985 : en:Chapter 16
01:17:41.156 : en:Chapter 17







Релиз от: Rip by:



   Похожие торренты   Торрент   Размер 
В этой теме нет новых непрочитанных сообщений. Медведи / Bears (2014) BDRip 1080p от ExKinoRay | Лицензия

80 | 32

12.56 ГБ

В этой теме нет новых непрочитанных сообщений. Медведи / Bears (2014) HDRip от ExKinoRay | Лицензия

230 | 45

701.88 МБ

В этой теме нет новых непрочитанных сообщений. Медведи / Bears (2014) HDRip от ExKinoRay | Лицензия

244 | 32

1.37 ГБ

В этой теме нет новых непрочитанных сообщений. Медведи-соседи / Boonie Bears, to the Rescue! (2014) DVDRip-AVC от ExKinoRay | Лицензия

239 | 13

1.46 ГБ

В этой теме нет новых непрочитанных сообщений. Медведи-соседи / Boonie Bears, to the Rescue! (2014) DVDRip-AVC от ExKinoRay | Лицензия

262 | 29

1.88 ГБ

В этой теме нет новых непрочитанных сообщений. Медведи-соседи / Boonie Bears, to the Rescue! (2014) DVDRip от ExKinoRay | Лицензия

208 | 10

749.3 МБ

В этой теме нет новых непрочитанных сообщений. BBC: Живой мир. Полярные медведи и гризли / Polar bears & grizzlies - bears on top of the world (2007) DVDRip от ExKinoRay

7 | 4

702.22 МБ




Вы не можете начинать темы
Вы не можете отвечать на сообщения
Вы не можете редактировать свои сообщения
Вы не можете удалять свои сообщения
Вы не можете добавлять вложения

Перейти:  
Для Мосгорсуда, Роскомнадзора и рекламодателей: mosgorsud-torrent[собачка]yandex.ru
 Вход
ppkBB3cker v.2 © 2008-2014 @ PPK
[ Time : 0.050s | 15 Queries | GZIP : Off ]

Торрент трекер RUTOR.IN, Не можете зайти на rutor.org? Какой новый адрес рутор? Какое зеркало рутор? Не работает rutor.org и зеркала? Тогда наш торрент специально для вас. Rutor.in неофициальное зеркало rutor. В случае если у Вас заблокирован rutor или вдруг Вы не можете на него зайти, то Вы без труда сможете скачать бесплатно и без рекламы последние новинки кино, игр, сериалов и прочего у нас, на Rutor.in. Не нужно использовать прокси, чтобы зайти на рутор, достаточно воспользоваться нашим ресурсом. Все новые фильмы, игры, сериалы, книги и музыка за 2013 и 2014 годы через торрент бесплатно. Скачивайте фильмы в хорошем качестве, игры для пк, xbox, playstation без регистрации. У нас вы найдете новые Зарубежные сериалы и Русские сериалы 2013, 2014, 2015 годов. Оставайтесь с нами, качайте любимые фильмы, игры, сериалы, книги и музыку.