img image001 image001 image001 image001 image001 image001 image001 image001 image001 image001 image001 image001 image001 image001 image001

Planets Sun Sun Sun
Статистика раздачи
Автор: Nickolas3434 | Размер: 3.34 ГБ | Добавлен: 09 авг 2014
Раздают: 35    Качают: 14
Скачать торрент
Скачать торрент
Описание торрента

СообщениеДобавлено: 09 авг 2014 

Информация о фильме
Название: Убойные серферы
Оригинальное название: Storm Surfers 3D
Год выхода: 2012
Жанр: Документальный, приключения
Режиссер: Джастин МакМиллан, Кристофер Нелиус
В ролях: Том Кэрролл, Росс Кларк-Джонс, Бен Мэтсон
О фильме:
Проект, который демонстрирует вершины мастерства двух лучших серферов планеты. Для двукратного чемпиона мира Тома Кэррола и его ближайшего друга и соперника Росса Кларка-Джоунса океанские штормовые волны — не просто увлечение длиною в жизнь. Это вызов, который они бросают своему собственному страху. Но однажды метеоролог, гуру всех австралийских серфингистов, Бэн Мэтсон рассказывает им о волне, которую невозможно победить. Полет на волне высотой с небоскреб и длиной в расстояние между Москвой и Питером? Как подготовиться к такому? Мастера утверждают, что залог успеха не только в техническом совершенстве, но и в серьезной интеллектуальной подготовке. Между тем, человек — это всего-навсего человек. Инстинкт самосохранения нельзя победить. На ваших глазах Том и Росс пытаются совершить настоящий подвиг.

Страна: Австралия
Студия: 6ixty Foot Films, Firelight Productions, Red Bull Media House
Продолжительность: 01:31:06
Перевод: Профессиональный двухголосый
Файл
Кодек: MPEG-4 AVC
Качество: HDTVRip 720p
Видео: 4800 Кбит/с, 1280x720, 25.000 кадр/с
Звук: Русский (АС3, 6 ch, 448 Кбит/с)
Семпл

Общее
Полное имя : Ubojnye.serfery.2012.x264.HDTVRip(720p).MediaClub.mkv
Формат : Matroska
Версия формата : Version 2
Размер файла : 3,34 Гбайт
Продолжительность : 1 ч. 31 м.
Общий поток : 5249 Кбит/сек
Название фильма : MediaClub
Дата кодирования : UTC 2014-08-07 15:23:28
Программа кодирования : mkvmerge v5.4.0 ('Piper') built on Mar 10 2012 13:34:39
Библиотека кодирования : libebml v1.2.3 + libmatroska v1.3.0
Видео
Идентификатор : 1
Формат : AVC
Формат/Информация : Advanced Video Codec
Профиль формата : High@L4.1
Параметр CABAC формата : Да
Параметр ReFrames формата : 9 кадров
Идентификатор кодека : V_MPEG4/ISO/AVC
Продолжительность : 1 ч. 31 м.
Битрейт : 4800 Кбит/сек
Ширина : 1280 пикселей
Высота : 720 пикселей
Соотношение сторон : 16:9
Режим частоты кадров : Постоянный
Частота кадров : 25,000 кадров/сек
Цветовое пространство : YUV
Субдискретизация насыщенности : 4:2:0
Битовая глубина : 8 бит
Тип развёртки : Прогрессивная
Бит/(Пиксели*Кадры) : 0.208
Размер потока : 2,99 Гбайт (89%)
Библиотека кодирования : x264 core 125 r2208 d9d2288
Настройки программы : cabac=1 / ref=9 / deblock=1:-3:-2 / analyse=0x3:0x133 / me=umh / subme=10 / psy=1 / psy_rd=1.00:0.20 / mixed_ref=1 / me_range=48 / chroma_me=1 / trellis=2 / 8x8dct=1 / cqm=0 / deadzone=21,11 / fast_pskip=0 / chroma_qp_offset=-3 / threads=6 / lookahead_threads=1 / sliced_threads=0 / nr=0 / decimate=0 / interlaced=0 / bluray_compat=0 / constrained_intra=0 / bframes=8 / b_pyramid=2 / b_adapt=2 / b_bias=0 / direct=3 / weightb=1 / open_gop=0 / weightp=2 / keyint=250 / keyint_min=25 / scenecut=40 / intra_refresh=0 / rc=2pass / mbtree=0 / bitrate=4800 / ratetol=1.0 / qcomp=0.60 / qpmin=0 / qpmax=69 / qpstep=4 / cplxblur=20.0 / qblur=0.5 / ip_ratio=1.40 / pb_ratio=1.30 / aq=1:1.00
Default : Да
Forced : Нет
Аудио
Идентификатор : 2
Формат : AC-3
Формат/Информация : Audio Coding 3
Расширение режима : CM (complete main)
Параметр Endianness формата : Big
Идентификатор кодека : A_AC3
Продолжительность : 1 ч. 31 м.
Вид битрейта : Постоянный
Битрейт : 448 Кбит/сек
Каналы : 6 каналов
Расположение каналов : Front: L C R, Side: L R, LFE
Частота : 48,0 КГц
Битовая глубина : 16 бит
Метод сжатия : С потерями
Размер потока : 292 Мбайт (9%)
Язык : Russian
Default : Да
Forced : Нет

Релиз от:



   Похожие торренты   Торрент   Размер 
В этой теме нет новых непрочитанных сообщений. Убойные серферы / Storm Surfers 3D (2012) HDTVRip от MediaClub | P2

77 | 18

1.37 ГБ

В этой теме нет новых непрочитанных сообщений. Убойные серферы / Storm Surfers 3D (2012) HDTVRip-AVC от MediaClub | P2

48 | 10

2.23 ГБ

В этой теме нет новых непрочитанных сообщений. Убойные серферы / Storm Surfers 3D (2012) BDRip 1080p | 3D-Video | halfOU | Звук с TVRip

24 | 9

14.65 ГБ

В этой теме нет новых непрочитанных сообщений. VA - Storm Riders [Compiled by Mind Storm] (2012) FLAC

1 | 4

1.07 ГБ

В этой теме нет новых непрочитанных сообщений. Subway Surfers (2012) PC

12546 | 329

22.41 МБ

В этой теме нет новых непрочитанных сообщений. Subway Surfers (2012) PC

6630 | 450

19.33 МБ

В этой теме нет новых непрочитанных сообщений. VA - Storm Riders - Compiled by Mind Storm (2012) MP3

1 | 2

357.99 МБ




Вы не можете начинать темы
Вы не можете отвечать на сообщения
Вы не можете редактировать свои сообщения
Вы не можете удалять свои сообщения
Вы не можете добавлять вложения

Перейти:  
Для Мосгорсуда, Роскомнадзора и рекламодателей: mosgorsud-torrent[собачка]yandex.ru
 Вход
ppkBB3cker v.2 © 2008-2014 @ PPK
[ Time : 0.039s | 17 Queries | GZIP : Off ]

Торрент трекер RUTOR.IN, Не можете зайти на rutor.org? Какой новый адрес рутор? Какое зеркало рутор? Не работает rutor.org и зеркала? Тогда наш торрент специально для вас. Rutor.in неофициальное зеркало rutor. В случае если у Вас заблокирован rutor или вдруг Вы не можете на него зайти, то Вы без труда сможете скачать бесплатно и без рекламы последние новинки кино, игр, сериалов и прочего у нас, на Rutor.in. Не нужно использовать прокси, чтобы зайти на рутор, достаточно воспользоваться нашим ресурсом. Все новые фильмы, игры, сериалы, книги и музыка за 2013 и 2014 годы через торрент бесплатно. Скачивайте фильмы в хорошем качестве, игры для пк, xbox, playstation без регистрации. У нас вы найдете новые Зарубежные сериалы и Русские сериалы 2013, 2014, 2015 годов. Оставайтесь с нами, качайте любимые фильмы, игры, сериалы, книги и музыку.