img image001 image001 image001 image001 image001 image001 image001 image001 image001 image001 image001 image001 image001 image001 image001

Planets Sun Sun Sun
Статистика раздачи
Автор: Nickolas3434 | Размер: 1.46 ГБ | Добавлен: 10 авг 2014
Раздают: 107    Качают: 21
Скачать торрент
Скачать торрент
Описание торрента

СообщениеДобавлено: 10 авг 2014 

Название: Белый свет/ Черный дождь: Разрушение Хиросимы и Нагасаки
Оригинальное название: White Light/ Black Rain: The Destruction of Hiroshima and Nagasaki
Год выпуска: 2007
Жанр: Документальный, история
Выпущено: США, Farallon Films
Режиссер: Стивен Окадзаки
В ролях: Харольд Эгнью, Др. Сюнтаро Хида, Киёко Имори, Моррис Джеппсон, Лоуренс Джонстон, Pan Yeon Kim, Эцуко Нагано, Кэйдзи Накадзава, Чиеми Ока, Keiko Sasamori
О фильме: В мире увеличивается напряженность, и то, что раньше было немыслимым, сейчас кажется возможным. Угроза применения ядерного оружия стала пугающе реальной. Фильм показывает реальность ядерной войны из первых уст — тех людей, кто выжил, и чья жизнь навсегда изменилась после взрыва атомной бомбы.
Качество: HDTVRip исходник (HDTV 1080i)
Видео: XviD, 2183 Кбит/с, 720x400
Аудио #1: Русский, AC3, 2 ch, 192 Кбит/с
Аудио #2: Английский, AC3, 2 ch, 192 Кбит/с
Продолжительность: 01:21:10
Перевод: Профессиональный (двухголосый)
Спасибо за предоставленный исходник WhiteQueen
General
Complete name : G:Hyrosymy i Nahasaky 2007 HDTVRip 1.46.avi
Format : AVI
Format/Info : Audio Video Interleave
File size : 1.46 GiB
Duration : 1h 21mn
Overall bit rate : 2 582 Kbps
Writing application : VirtualDubModRus 1.5.10.2 (build 2542/release)
Writing library : VirtualDubMod build 2542/release
Video
ID : 0
Format : MPEG-4 Visual
Format profile : Advanced Simple@L5
Format settings, BVOP : 1
Format settings, QPel : No
Format settings, GMC : No warppoints
Format settings, Matrix : Default (MPEG)
Codec ID : XVID
Codec ID/Hint : XviD
Duration : 1h 21mn
Bit rate : 2 183 Kbps
Width : 720 pixels
Height : 400 pixels
Display aspect ratio : 16:9
Frame rate : 25.000 fps
Color space : YUV
Chroma subsampling : 4:2:0
Bit depth : 8 bits
Scan type : Progressive
Compression mode : Lossy
Bits/(Pixel*Frame) : 0.303
Stream size : 1.24 GiB (85%)
Writing library : XviD 57
Audio #1
ID : 1
Format : AC-3
Format/Info : Audio Coding 3
Mode extension : CM (complete main)
Format settings, Endianness : Big
Codec ID : 2000
Duration : 1h 21mn
Bit rate mode : Constant
Bit rate : 192 Kbps
Channel(s) : 2 channels
Channel positions : Front: L R
Sampling rate : 48.0 KHz
Bit depth : 16 bits
Compression mode : Lossy
Stream size : 111 MiB (7%)
Alignment : Split accross interleaves
Interleave, duration : 40 ms (1.00 video frame)
Interleave, preload duration : 500 ms
Audio #2
ID : 2
Format : AC-3
Format/Info : Audio Coding 3
Mode extension : CM (complete main)
Format settings, Endianness : Big
Codec ID : 2000
Duration : 1h 21mn
Bit rate mode : Constant
Bit rate : 192 Kbps
Channel(s) : 2 channels
Channel positions : Front: L R
Sampling rate : 48.0 KHz
Bit depth : 16 bits
Compression mode : Lossy
Stream size : 111 MiB (7%)
Alignment : Split accross interleaves
Interleave, duration : 40 ms (1.00 video frame)
Interleave, preload duration : 500 ms







Релиз от:



   Похожие торренты   Торрент   Размер 
В этой теме нет новых непрочитанных сообщений. Разрушение Хиросимы и Нагасаки / The destruction of Hiroshima and Nagasaki HDTV 1080i от Generalfilm

90 | 51

4.27 ГБ

В этой теме нет новых непрочитанных сообщений. Черный дождь / Black Rain (1989) BDRip | P

7 | 4

746.67 МБ

В этой теме нет новых непрочитанных сообщений. Черный дождь / Black Rain (1989) HDRip-AVC

16 | 3

2.92 ГБ

В этой теме нет новых непрочитанных сообщений. Черный Дождь / Black Rain (1989) BDRip от HELLYWOOD

4 | 2

2.69 ГБ

В этой теме нет новых непрочитанных сообщений. Черный Дождь / Black Rain (1989) BD-Remux 1080p

3 | 2

28.63 ГБ

В этой теме нет новых непрочитанных сообщений. Черный дождь / Black Rain (1989) BDRip-AVC от 0ptimus | P, A

271 | 9

4.16 ГБ

В этой теме нет новых непрочитанных сообщений. Чёрный Дождь / Black Rain (1989) BDRip от HQCLUB

7 | 4

2.18 ГБ




Вы не можете начинать темы
Вы не можете отвечать на сообщения
Вы не можете редактировать свои сообщения
Вы не можете удалять свои сообщения
Вы не можете добавлять вложения

Перейти:  
Для Мосгорсуда, Роскомнадзора и рекламодателей: mosgorsud-torrent[собачка]yandex.ru
 Вход
ppkBB3cker v.2 © 2008-2014 @ PPK
[ Time : 0.019s | 15 Queries | GZIP : Off ]

Торрент трекер RUTOR.IN, Не можете зайти на rutor.org? Какой новый адрес рутор? Какое зеркало рутор? Не работает rutor.org и зеркала? Тогда наш торрент специально для вас. Rutor.in неофициальное зеркало rutor. В случае если у Вас заблокирован rutor или вдруг Вы не можете на него зайти, то Вы без труда сможете скачать бесплатно и без рекламы последние новинки кино, игр, сериалов и прочего у нас, на Rutor.in. Не нужно использовать прокси, чтобы зайти на рутор, достаточно воспользоваться нашим ресурсом. Все новые фильмы, игры, сериалы, книги и музыка за 2013 и 2014 годы через торрент бесплатно. Скачивайте фильмы в хорошем качестве, игры для пк, xbox, playstation без регистрации. У нас вы найдете новые Зарубежные сериалы и Русские сериалы 2013, 2014, 2015 годов. Оставайтесь с нами, качайте любимые фильмы, игры, сериалы, книги и музыку.