img image001 image001 image001 image001 image001 image001 image001 image001 image001 image001 image001 image001 image001 image001 image001

Planets Sun Sun Sun
Статистика раздачи
Автор: Nickolas3434 | Размер: 6.56 ГБ | Добавлен: 11 авг 2014
Раздают: 154    Качают: 116
Скачать торрент
Скачать торрент
Описание торрента

СообщениеДобавлено: 11 авг 2014 

Информация о фильме
Название: NG. Реки жизни
Оригинальное название: NG. Rivers and Life
Год выхода: 2009
Жанр: Документальный, флора, фауна
О фильме:
Река Амазонка - это выдающаяся природная сила. Она простирается более чем на 6,5 тысяч километров по южно-американскому континенту и питает своими водами крупнейший дождевой лес на Земле. В ее водах живет огромное множество различных видов рыб. Но это не только богатейшая река на Земле, она еще и самая могучая. Глубиной до нескольких сотен метров и до 40 километров в ширину, Амазонка является самой полноводной рекой в мире. Человеку еще не удалось покорить этот бесценный дар природы. Но хоть реку и не удается подчинить себе, она может быть уничтожена. Сегодня ведется широкая коммерческая разработка дикой природы, защищающей Амазонку и ее будущее висит на волоске. Главный вопрос на сегодня - сколько еще Великой реке течь на свободе?

С самого начала истории Нил был источником силы одной из величайших цивилизаций на свете. Его воды текли у ног Клеопатры, Иосифа и Моисея, крестоносцев и фараонов древнего Египта. Все омывались в этой реке... Египтяне всегда верили, что эта река - их уникальный подарок богов. И до недавних пор реке позволялось беспрепятственно втекать на их земли. Однако сейчас все изменилось. Выше по течению Эфиопия ведет строительство плотин, которые угрожают отрезать Египет от его водоснабжения у самого истока. Многие войны XX в. велись из-за нефти. Но войны XXI в. будут вестись из-за воды! И Нил, самая длинная река мира, окажется в эпицентре конфликта...

Ганг - самая почитаемая река на Земле. От истоков до океана, на пути в две с половиной тысячи километров, река протекает через центр материальной и духовной культуры Индии. Говорят, что искупаться в водах Ганга, значит очистить душу. Умереть на берегу реки, означает заслужить дорогу на небеса. Духовное влияние Ганга соотноситься с физической мощью реки. Река и ее притоки снабжают водой пол миллиарда человек. Но сегодня приближается кризис, который может превратить реку жизни, в реку смерти. По мере того, как растет население Индии, загрязнение вызванное человеком оскверняет воду, которой люди поклоняются. Каждый год река отравляет более миллиона детей. Сегодня, не смотря на святость, Ганг нельзя назвать чистой рекой.

Это история реки, сформировавшей нацию, а также поставившая ее на грань катастрофы. Имея протяженность более, чем в 3,5 тыс. км., Миссисипи протекает через самое сердце Америки. Она принесла стране огромное состояние, сделав ее самой богатой на планете, но она принесла ей и много горестей и страданий. Это также река, которая потрясла нацию. Блюз, рок-н-ролл, госпел и джаз - все они приплыли в Америку по грязным водам Миссисипи и затем попали в остальной мир, совершив в нем музыкальную революцию. Миссисипи сделала Америку такой, какая она есть сегодня.

Рейн... Гигантская артерия, питающая сердце Европы. Это река, изменившая ход истории. Она объединяла и разделяла народы Европы. С одной стороны, Рейн - это жизненно важный торговый путь, соединяющий страны и культуры на протяжении 1300 км своего русла - от истока до моря. С другой стороны, это барьер между народами, граница, которую нужно пересекать... В течение всей истории Рейн видел кровавые сражения и слышал крики войны. Но сегодня эта река и живущие на ней люди ведут новое сражение - против эффектов климатических перемен. Потому что по мере нагревания мира, Альпийский ледник, питающий реку, быстро тает. Меньше, чем через 100 лет исток Рейна может сократится до ничтожных размеров! Могучие воды могут прекратить свой бег, а жизни людей и стран, разделяющих Рейн, могут изменится навсегда...

Река Янцзы - залог будущего Китая. Она протянулась на 6000 км, от своего истока в Тибетских нагорьях до Шанхайской дельты. Это самый используемый водный путь в мире и один из самых опасных. Только в течении прошлого века, ее разливы привели к гибели около 300 тысяч человек. Сейчас, человек решил нанести ответный удар очень мощным инженерным проектом (дамба "Три ущелья"), который должен обуздать разрушительную силу реки и поставить ее на службу людям.

Страна: США
Студия: National Geographic
Продолжительность: 6 х ~ 00:51:00
Перевод: профессиональный одноголосый (Студия "Арк-ТВ")
Файл
Кодек: h.264
Качество: HDTVRip 720p
Видео: 1280x720, 2817 kbit/s, 25 fps
Звук: Русский (AC-3, 6ch, 384 kbit/s, 48 kHz)
Общее
Уникальный идентификатор : 193557617079336336658765949883179877667 (0x919DD7505895CD6C9836D4E9E7B84523)
Полное имя : 1. Амазонка.mkv
Формат : Matroska
Версия формата : Version 1
Размер файла : 1,09 Гбайт
Продолжительность : 46 м.
Общий поток : 3354 Кбит/сек
Дата кодирования : UTC 2009-07-18 15:37:30
Программа кодирования : mkvmerge v2.1.0 ('Another Place To Fall') built on Aug 19 2007 13:40:07
Библиотека кодирования : libebml v0.7.7 + libmatroska v0.8.1
Видео
Идентификатор : 1
Формат : AVC
Формат/Информация : Advanced Video Codec
Профиль формата : High@L5.1
Параметр CABAC формата : Да
Параметр ReFrames формата : 3 кадра
Идентификатор кодека : V_MPEG4/ISO/AVC
Продолжительность : 46 м.
Битрейт : 2966 Кбит/сек
Ширина : 1280 пикселей
Высота : 720 пикселей
Соотношение сторон : 16:9
Режим частоты кадров : Постоянный
Частота кадров : 25,000 кадров/сек
Цветовое пространство : YUV
Субдискретизация насыщенности : 4:2:0
Битовая глубина : 8 бит
Тип развёртки : Прогрессивная
Бит/(Пиксели*Кадры) : 0.129
Размер потока : 969 Мбайт (87%)
Библиотека кодирования : x264 core 60 r900 a9af942
Настройки программы : cabac=1 / ref=3 / deblock=1:0:0 / analyse=0x3:0x133 / me=umh / subme=6 / brdo=1 / mixed_ref=1 / me_range=8 / chroma_me=1 / trellis=1 / 8x8dct=1 / cqm=0 / deadzone=21,11 / chroma_qp_offset=0 / threads=6 / nr=0 / decimate=1 / mbaff=0 / bframes=3 / b_pyramid=1 / b_adapt=1 / b_bias=0 / direct=3 / wpredb=1 / bime=1 / keyint=250 / keyint_min=50 / scenecut=40(pre) / rc=2pass / bitrate=2966 / ratetol=1.0 / rceq='blurCplx^(1-qComp)' / qcomp=1.00 / qpmin=10 / qpmax=51 / qpstep=4 / cplxblur=20.0 / qblur=0.5 / ip_ratio=1.40 / pb_ratio=1.30 / aq=2:1.00
Default : Да
Forced : Нет
Аудио
Идентификатор : 2
Формат : AC-3
Формат/Информация : Audio Coding 3
Расширение режима : CM (complete main)
Параметр Endianness формата : Big
Идентификатор кодека : A_AC3
Продолжительность : 46 м.
Вид битрейта : Постоянный
Битрейт : 384 Кбит/сек
Каналы : 6 каналов
Расположение каналов : Front: L C R, Side: L R, LFE
Частота : 48,0 КГц
Битовая глубина : 16 бит
Метод сжатия : С потерями
Размер потока : 128 Мбайт (11%)
Заголовок : Amazonka_by_nyctalus
Язык : Russian
Default : Да
Forced : Нет
Общее
Уникальный идентификатор : 241344034401814427971191161807140836836 (0xB5912B972A9FD7B6881420B6AC6C55E4)
Полное имя : 2. Нил.mkv
Формат : Matroska
Версия формата : Version 1
Размер файла : 1,09 Гбайт
Продолжительность : 47 м.
Общий поток : 3328 Кбит/сек
Дата кодирования : UTC 2009-08-10 10:03:20
Программа кодирования : mkvmerge v2.1.0 ('Another Place To Fall') built on Aug 19 2007 13:40:07
Библиотека кодирования : libebml v0.7.7 + libmatroska v0.8.1
Видео
Идентификатор : 1
Формат : AVC
Формат/Информация : Advanced Video Codec
Профиль формата : High@L5.1
Параметр CABAC формата : Да
Параметр ReFrames формата : 5 кадров
Идентификатор кодека : V_MPEG4/ISO/AVC
Продолжительность : 47 м.
Битрейт : 2941 Кбит/сек
Ширина : 1280 пикселей
Высота : 720 пикселей
Соотношение сторон : 16:9
Режим частоты кадров : Постоянный
Частота кадров : 25,000 кадров/сек
Цветовое пространство : YUV
Субдискретизация насыщенности : 4:2:0
Битовая глубина : 8 бит
Тип развёртки : Прогрессивная
Бит/(Пиксели*Кадры) : 0.128
Размер потока : 968 Мбайт (86%)
Библиотека кодирования : x264 core 60 r900 a9af942
Настройки программы : cabac=1 / ref=5 / deblock=1:0:0 / analyse=0x3:0x133 / me=umh / subme=6 / brdo=1 / mixed_ref=1 / me_range=8 / chroma_me=1 / trellis=1 / 8x8dct=1 / cqm=0 / deadzone=21,11 / chroma_qp_offset=0 / threads=6 / nr=0 / decimate=1 / mbaff=0 / bframes=3 / b_pyramid=1 / b_adapt=1 / b_bias=0 / direct=3 / wpredb=1 / bime=1 / keyint=250 / keyint_min=50 / scenecut=40(pre) / rc=2pass / bitrate=2941 / ratetol=1.0 / rceq='blurCplx^(1-qComp)' / qcomp=1.00 / qpmin=10 / qpmax=51 / qpstep=4 / cplxblur=20.0 / qblur=0.5 / ip_ratio=1.40 / pb_ratio=1.30 / aq=2:1.00
Default : Да
Forced : Нет
Аудио
Идентификатор : 2
Формат : AC-3
Формат/Информация : Audio Coding 3
Расширение режима : CM (complete main)
Параметр Endianness формата : Big
Идентификатор кодека : A_AC3
Продолжительность : 47 м.
Вид битрейта : Постоянный
Битрейт : 384 Кбит/сек
Каналы : 6 каналов
Расположение каналов : Front: L C R, Side: L R, LFE
Частота : 48,0 КГц
Битовая глубина : 16 бит
Метод сжатия : С потерями
Размер потока : 129 Мбайт (12%)
Заголовок : nil_by_nyctalus
Язык : Russian
Default : Да
Forced : Нет
Общее
Уникальный идентификатор : 242867587420456447659518890451669968638 (0xB6B6988DC81129B1A8B0D867A0ED66FE)
Полное имя : 3. Ганг.mkv
Формат : Matroska
Версия формата : Version 1
Размер файла : 1,09 Гбайт
Продолжительность : 46 м.
Общий поток : 3338 Кбит/сек
Дата кодирования : UTC 2009-07-25 11:20:53
Программа кодирования : mkvmerge v2.1.0 ('Another Place To Fall') built on Aug 19 2007 13:40:07
Библиотека кодирования : libebml v0.7.7 + libmatroska v0.8.1
Видео
Идентификатор : 1




   Похожие торренты   Торрент   Размер 
В этой теме нет новых непрочитанных сообщений. Три реки / Three Rivers [S01] (2009-2010) HDTVRip | P

3 | 2

5.07 ГБ

В этой теме нет новых непрочитанных сообщений. Реки мира / Rivers Of The World [01-06 из 06] (2009) HDTVRip | P1

156 | 13

2.21 ГБ

В этой теме нет новых непрочитанных сообщений. Реки мира / Rivers Of The World [01-06 из 06] (2009) HDTVRip-AVC от Тorrent-Хzona

1 | 12

3.36 ГБ

В этой теме нет новых непрочитанных сообщений. Все реки текут / All The Rivers Run (1983) SATRip

117 | 15

7.11 ГБ

В этой теме нет новых непрочитанных сообщений. Чарльз Дарвин и Древо жизни / Charles Darwin and the Tree of Life (2009) HDTVRip 720p

4 | 3

1.42 ГБ

В этой теме нет новых непрочитанных сообщений. Багровые реки 2: Ангелы апокалипсиса / Crimson Rivers 2: Angels of the Apocalypse / Les rivières pourpres II - Les anges de l'apocalypse (2004) HDRip

0 | 5

744.37 МБ

В этой теме нет новых непрочитанных сообщений. Жизнь за гранью (После жизни) / After.Life (2009) BDRip (720p) от HD-Zona-X

0 | 2

5.63 ГБ




Вы не можете начинать темы
Вы не можете отвечать на сообщения
Вы не можете редактировать свои сообщения
Вы не можете удалять свои сообщения
Вы не можете добавлять вложения

Перейти:  
Для Мосгорсуда, Роскомнадзора и рекламодателей: mosgorsud-torrent[собачка]yandex.ru
 Вход
ppkBB3cker v.2 © 2008-2014 @ PPK
[ Time : 0.043s | 15 Queries | GZIP : Off ]

Торрент трекер RUTOR.IN, Не можете зайти на rutor.org? Какой новый адрес рутор? Какое зеркало рутор? Не работает rutor.org и зеркала? Тогда наш торрент специально для вас. Rutor.in неофициальное зеркало rutor. В случае если у Вас заблокирован rutor или вдруг Вы не можете на него зайти, то Вы без труда сможете скачать бесплатно и без рекламы последние новинки кино, игр, сериалов и прочего у нас, на Rutor.in. Не нужно использовать прокси, чтобы зайти на рутор, достаточно воспользоваться нашим ресурсом. Все новые фильмы, игры, сериалы, книги и музыка за 2013 и 2014 годы через торрент бесплатно. Скачивайте фильмы в хорошем качестве, игры для пк, xbox, playstation без регистрации. У нас вы найдете новые Зарубежные сериалы и Русские сериалы 2013, 2014, 2015 годов. Оставайтесь с нами, качайте любимые фильмы, игры, сериалы, книги и музыку.