img image001 image001 image001 image001 image001 image001 image001 image001 image001 image001 image001 image001 image001 image001 image001

Planets Sun Sun Sun
Статистика раздачи
Автор: Nickolas3434 | Размер: 3.69 ГБ | Добавлен: 17 сен 2014
Раздают: 107    Качают: 11
Скачать торрент
Скачать торрент
Описание торрента

СообщениеДобавлено: 17 сен 2014 

Название: Битва за космос
Оригинальное название: Space Race
Год выхода: 2005
Жанр: Художественно-документальный, драма
Режиссер: Кристофер Спенсер, Марк Эверест
В ролях: Мария Миронова, Михаил Горевой, Анна Бэркэн, Макс Боллинджер, Оливер Де Ла Фоссе, Ричард Диллэйн, Стив Николсон, Стюарт Банс, Джон Уэрнэби, Саймон Дэй, Равиль Исянов, Эрик Лорен

О фильме:
Это подлинная история одного из самых захватывающих и волнующих эпизодов в истории человечества. Четырехсерийный фильм рассказывает о сражении блестящих научных умов в космической гонке двух супердержав - СССР и США. В центре противостояния двух систем, поглощавшего огромные ресурсы, и уносившего немало жизней, двое ученых: работающий на американцев бывший нацист Вернер фон Браун, и Сергей Королев - главный конструктор, руководитель советской группы разработчиков космической программы. Этот крупнобюджетный документальный проект объединил-усилия таких ведущих телевизионных компаний, как "Первый канал" (Россия), BBC (Великобритания), National Geographic (США) и NDR (Германия). Создатели сериала используют уникальные компьютерные технологии, которые буквально "оживляют" прошлое, чтобы с максимальной достоверностью представить зрителям драматические подробности этой "битвы за космос". В основу сценария легли воспоминания очевидцев и дневниковые записи участников событий, а также архивные документы и видеоматериалы.

Страна: Великобритания, Россия, США, Германия
Студия: BBC, Первый канал, National Geographic Channel, NDR
Продолжительность: 4 х ~ 00:52:00
Перевод: Дублированный

Кодек: MPEG-4 AVC
Качество: DVDRip-AVC
Видео: 720x576@1024x576, ~ 2100 Кбит/с, 25,000 fps
Звук: AC3, 6 ch, 448 Кбит/с
Субтитры: Русские

Семпл
Фильм 1: Ракетная гонка. 1944 год. Советская и американская разведки соперничают в охоте за технологическими секретами третьего Рейха. Вернер фон Браун - гениальный ученый, член нацистской партии, создатель ракет ФАУ-1 и ФАУ-2 бежит к американцам. Его ближайший помощник - Гельмут Греттруп - сдается русским. В это же время в Германии находится Сергей Королев. Через три года под его руководством в СССР осуществляют успешный запуск собственной, гораздо более совершенной, чем ФАУ-2, ракеты Р-2.

Фильм 2: Первый спутник. Руководители советской и американской космических программ - Вернер фон Браун и Сергей Королев - мечтают о полетах за пределы Земли. Но правительства супердержав согласны финансировать исключительно военные программы, и Королеву и фон Брауну приходится прикладывать немало сил, прибегая иногда к откровенным уловкам, чтобы добиться разрешения готовить к запуску первый спутник. 4 октября 1957 года сообщение о советском "искусственном спутнике земли" было на первых полосах газет всего мира. Спутник Вернера фон Брауна запустили только через 4 месяца. Американцы сравняли счет.

Фильм 3: Гонка на выживание. "Звездный отряд" в Советском Союзе против "семи первопроходцев" в Америке. Никто нe знал точно, сможет ли человек выдержать экстремальные условия путешествия в космос. Вернер фон Браун и Сергей Королев проводят одно испытание за другим. Катастрофа с ракетой Р-16 наносит серьезный удар советской космической программе. Старт первого американского космонавта - Алана Шепарда - из-за технических проблем переносится дважды. И опять Советский Союз победил. Сегодня имя первого космонавта земли - Юрия Гагарина - знает весь мир.

Фильм 4: Лунная гонка. Триумфальный полет Гагарина в Америке восприняли как национальное унижение. Президент Кеннеди пообещал, что именно Америка отправит человека на Луну. Смерть Сергея Королева коренным образом изменила ход космической гонки. 20 июля 1969 года, спустя 25 лет с тех пор, как Вернер фон Браун прибыл в Америку, его ракета доставила на поверхность Луны Нила Армстронга и Эдвина Олдрина.
Общее
Уникальный идентификатор : 221709495721355865220739055921640116071 (0xA6CBB217DA7E035293B3A7EE6E120F67)
Полное имя : F:мои рипыSpace race.2005.x264.DVDRip.(AVC)�4.Лунная гонка.mkv
Формат : Matroska
Версия формата : Version 4 / Version 2
Размер файла : 946 Мбайт
Продолжительность : 52 м.
Общий поток : 2510 Кбит/сек
Название фильма : Space race / Лунная гонка / 2005 / Rip by PowerRock
Дата кодирования : UTC 2014-03-01 08:48:04
Программа кодирования : mkvmerge v6.7.0 ('Back to the Ground') 32bit built on Jan 8 2014 15:03:17
Библиотека кодирования : libebml v1.3.0 + libmatroska v1.4.1

Видео
Идентификатор : 1
Формат : AVC
Формат/Информация : Advanced Video Codec
Профиль формата : High@L4.1
Параметр CABAC формата : Да
Параметр ReFrames формата : 8 кадров
Идентификатор кодека : V_MPEG4/ISO/AVC
Продолжительность : 52 м.
Битрейт : 2059 Кбит/сек
Ширина : 1024 пикселя
Высота : 576 пикселей
Соотношение сторон : 16:9
Режим частоты кадров : Постоянный
Частота кадров : 25,000 кадров/сек
Цветовое пространство : YUV
Субдискретизация насыщенности : 4:2:0
Битовая глубина : 8 бит
Тип развёртки : Прогрессивная
Бит/(Пиксели*Кадры) : 0.140
Размер потока : 758 Мбайт (80%)
Заголовок : Space race / Лунная гонка
Библиотека кодирования : x264 core 125 r2200 999b753
Настройки программы : cabac=1 / ref=8 / deblock=1:-2:-2 / analyse=0x3:0x133 / me=umh / subme=10 / psy=1 / psy_rd=1.00:0.10 / mixed_ref=1 / me_range=24 / chroma_me=1 / trellis=2 / 8x8dct=1 / cqm=0 / deadzone=21,11 / fast_pskip=0 / chroma_qp_offset=-3 / threads=6 / lookahead_threads=1 / sliced_threads=0 / nr=0 / decimate=1 / interlaced=0 / bluray_compat=0 / constrained_intra=0 / bframes=7 / b_pyramid=2 / b_adapt=2 / b_bias=0 / direct=3 / weightb=1 / open_gop=0 / weightp=2 / keyint=250 / keyint_min=23 / scenecut=40 / intra_refresh=0 / rc_lookahead=50 / rc=2pass / mbtree=1 / bitrate=2059 / ratetol=1.0 / qcomp=0.60 / qpmin=10 / qpmax=51 / qpstep=4 / cplxblur=20.0 / qblur=0.5 / ip_ratio=1.40 / aq=1:1.00
Default : Да
Forced : Нет

Аудио
Идентификатор : 2
Формат : AC-3
Формат/Информация : Audio Coding 3
Расширение режима : CM (complete main)
Параметр Endianness формата : Big
Идентификатор кодека : A_AC3
Продолжительность : 52 м.
Вид битрейта : Постоянный
Битрейт : 448 Кбит/сек
Каналы : 6 каналов
Расположение каналов : Front: L C R, Side: L R, LFE
Частота : 48,0 КГц
Битовая глубина : 16 бит
Метод сжатия : С потерями
Задержка видео : 480 мс.
Размер потока : 169 Мбайт (18%)
Язык : Russian
Default : Да
Forced : Нет

Текст
Идентификатор : 3
Формат : VobSub
Режим смешивания : zlib
Идентификатор кодека : S_VOBSUB
Идентификатор кодека/Информация : The same subtitle format used on DVDs
Язык : Russian
Default : Да
Forced : Нет






   Похожие торренты   Торрент   Размер 
В этой теме нет новых непрочитанных сообщений. Битва за космос / Space Race [S01] (2005) DVDRip | D

2 | 2

3.91 ГБ

В этой теме нет новых непрочитанных сообщений. Битва за космос / Space Race [S01] (2005) DVDRip-AVC от ExKinoRay | D

42 | 11

4.95 ГБ

В этой теме нет новых непрочитанных сообщений. Битва за космос / Space Race (2005) DVDRip-AVC от Тorrent-Хzona

4 | 7

3.08 ГБ

В этой теме нет новых непрочитанных сообщений. Секретный космос - Иллюминаты Захватывают Космос / Secret Space - Illuminati`s Conquest of Space (2007) DVDRip

40 | 17

917.65 МБ

В этой теме нет новых непрочитанных сообщений. Красный космос. Секретные космические программы русских / Red Space: The Secret Russian Space Program (1999) SATRip

43 | 8

2.44 ГБ

В этой теме нет новых непрочитанных сообщений. Мертвый космос / Dead Space (1991) DVDRip

13 | 7

743.88 МБ

В этой теме нет новых непрочитанных сообщений. BBC: Космос. Жизнь / BBC: Space. Life (2001) DVDRip

7 | 4

700.84 МБ




Вы не можете начинать темы
Вы не можете отвечать на сообщения
Вы не можете редактировать свои сообщения
Вы не можете удалять свои сообщения
Вы не можете добавлять вложения

Перейти:  
Для Мосгорсуда, Роскомнадзора и рекламодателей: mosgorsud-torrent[собачка]yandex.ru
 Вход
ppkBB3cker v.2 © 2008-2014 @ PPK
[ Time : 0.047s | 15 Queries | GZIP : Off ]

Торрент трекер RUTOR.IN, Не можете зайти на rutor.org? Какой новый адрес рутор? Какое зеркало рутор? Не работает rutor.org и зеркала? Тогда наш торрент специально для вас. Rutor.in неофициальное зеркало rutor. В случае если у Вас заблокирован rutor или вдруг Вы не можете на него зайти, то Вы без труда сможете скачать бесплатно и без рекламы последние новинки кино, игр, сериалов и прочего у нас, на Rutor.in. Не нужно использовать прокси, чтобы зайти на рутор, достаточно воспользоваться нашим ресурсом. Все новые фильмы, игры, сериалы, книги и музыка за 2013 и 2014 годы через торрент бесплатно. Скачивайте фильмы в хорошем качестве, игры для пк, xbox, playstation без регистрации. У нас вы найдете новые Зарубежные сериалы и Русские сериалы 2013, 2014, 2015 годов. Оставайтесь с нами, качайте любимые фильмы, игры, сериалы, книги и музыку.