img image001 image001 image001 image001 image001 image001 image001 image001 image001 image001 image001 image001 image001 image001 image001

Planets Sun Sun Sun
Статистика раздачи
Автор: Nickolas3434 | Размер: 6.48 ГБ | Добавлен: 19 сен 2014
Раздают: 41    Качают: 12
Скачать торрент
Скачать торрент
Описание торрента

СообщениеДобавлено: 19 сен 2014 

Оригинальное название: Полигон
Год выхода: 2012-2013
Жанр: Документальный
Ведущие: Иван Лебедев, Дмитрий Задорожный

О фильме:
Программа о современных военных разработках, новейших видах вооружения, средствах ведения боя и индивидуальной защиты! Российская армия сегодня – это не только автомат Калашникова и самолеты Сухого. Инновационные разработки военно-промышленного комплекса открывают практически безграничные возможности. Однако гражданским лицам о них известно крайне мало. Чтобы восполнить этот пробел, ведущие телеканала "Россия 2" Иван Лебедев и Дмитрий Задорожный отправляются на настоящие военные полигоны. В "боевых условиях" они попытаются выяснить, как устроены и работают современные бронеавтомобили и снайперские винтовки, ударные вертолеты и боевые корабли. С любознательностью новобранцев они будут рассматривать каждый винтик и интересоваться его предназначением, а также проводить тест-драйвы, ставить рискованные опыты и бесшабашные эксперименты. В этой программе не будет кирзовых сапог и строевой подготовки. Зато будет все то, о чем каждый настоящий мужчина мечтает с раннего детства – много оружия и грозной военной техники.

Список серий:
01. Оружие снайпера
02. Универсальный солдат
03. Боевые вертолёты
04. Неуловимый мститель
05. Десантура
06. Танк Т-90 СМ Прорыв
07. Терминатор
08. Мост за час
09. Дикая кошка Рысь
10. Крупный калибр

Страна: Россия
Студия: Телеканал "Россия HD"
Продолжительность: 10 х ~ 00:25:30
Язык: Русский

Кодек: MPEG-4 AVC
Качество: HDTVRip (720p)
Видео: 1280x720, ~ 3400 Кбит/с, 25,000 fps
Звук: AC3, 2 ch, 192 Кбит/с

Семпл

Общее
Уникальный идентификатор : 222641475085840380812928067666016781111 (0xA77F3039371F18958A7BF1AD7F24C337)
Полное имя : F:мои рипыПолигон.2012-2013.x264.HDTVRip.(720p)�6.Прорыв ( танк ).mkv
Формат : Matroska
Версия формата : Version 4 / Version 2
Размер файла : 663 Мбайт
Продолжительность : 25 м.
Общий поток : 3576 Кбит/сек
Название фильма : Полигон / Прорыв ( танк ) / Rip by PowerRock
Дата кодирования : UTC 2014-03-10 23:22:38
Программа кодирования : mkvmerge v6.7.0 ('Back to the Ground') 32bit built on Jan 8 2014 15:03:17
Библиотека кодирования : libebml v1.3.0 + libmatroska v1.4.1

Видео
Идентификатор : 1
Формат : AVC
Формат/Информация : Advanced Video Codec
Профиль формата : High@L4.1
Параметр CABAC формата : Да
Параметр ReFrames формата : 7 кадров
Идентификатор кодека : V_MPEG4/ISO/AVC
Продолжительность : 25 м.
Битрейт : 3382 Кбит/сек
Ширина : 1280 пикселей
Высота : 720 пикселей
Соотношение сторон : 16:9
Режим частоты кадров : Постоянный
Частота кадров : 25,000 кадров/сек
Цветовое пространство : YUV
Субдискретизация насыщенности : 4:2:0
Битовая глубина : 8 бит
Тип развёртки : Прогрессивная
Бит/(Пиксели*Кадры) : 0.147
Размер потока : 614 Мбайт (93%)
Заголовок : Полигон / Прорыв ( танк )
Библиотека кодирования : x264 core 125 r2200 999b753
Настройки программы : cabac=1 / ref=7 / deblock=1:-2:-2 / analyse=0x3:0x133 / me=umh / subme=10 / psy=1 / psy_rd=1.00:0.10 / mixed_ref=1 / me_range=24 / chroma_me=1 / trellis=2 / 8x8dct=1 / cqm=0 / deadzone=21,11 / fast_pskip=0 / chroma_qp_offset=-3 / threads=6 / lookahead_threads=1 / sliced_threads=0 / nr=0 / decimate=1 / interlaced=0 / bluray_compat=0 / constrained_intra=0 / bframes=5 / b_pyramid=2 / b_adapt=2 / b_bias=0 / direct=3 / weightb=1 / open_gop=0 / weightp=2 / keyint=250 / keyint_min=23 / scenecut=40 / intra_refresh=0 / rc_lookahead=50 / rc=2pass / mbtree=1 / bitrate=3382 / ratetol=1.0 / qcomp=0.60 / qpmin=10 / qpmax=51 / qpstep=4 / cplxblur=20.0 / qblur=0.5 / ip_ratio=1.40 / aq=1:1.00
Default : Да
Forced : Нет

Аудио
Идентификатор : 2
Формат : AC-3
Формат/Информация : Audio Coding 3
Расширение режима : CM (complete main)
Параметр Endianness формата : Big
Идентификатор кодека : A_AC3
Продолжительность : 25 м.
Вид битрейта : Постоянный
Битрейт : 192 Кбит/сек
Каналы : 2 канала
Расположение каналов : Front: L R
Частота : 48,0 КГц
Битовая глубина : 16 бит
Метод сжатия : С потерями
Размер потока : 35,6 Мбайт (5%)
Язык : Russian
Default : Да
Forced : Нет






   Похожие торренты   Торрент   Размер 
В этой теме нет новых непрочитанных сообщений. Полигон [01-59] (2012-2015) HDTVRip 720p

8 | 1

24.67 ГБ

В этой теме нет новых непрочитанных сообщений. Полигон [01-09] (2012) HDTVRip от Generalfilm

6 | 1

3.28 ГБ

В этой теме нет новых непрочитанных сообщений. Полигон [01-59] (2012-2016) HDTVRip от GeneralFilm

13 | 0

18.17 ГБ

В этой теме нет новых непрочитанных сообщений. Полигон [01-16] (2012-2013) WEBRip-AVC

12 | 2

4.86 ГБ

В этой теме нет новых непрочитанных сообщений. Полигон 27 (2013) WEB-DLRip

23 | 2

743.24 МБ

В этой теме нет новых непрочитанных сообщений. Полигон 27 (2013) WEBDLRip

47 | 1

1.44 ГБ

В этой теме нет новых непрочитанных сообщений. Полигон [01-32] (2012-2014) SATRip от MediaClub

83 | 56

11.44 ГБ




Вы не можете начинать темы
Вы не можете отвечать на сообщения
Вы не можете редактировать свои сообщения
Вы не можете удалять свои сообщения
Вы не можете добавлять вложения

Перейти:  
Для Мосгорсуда, Роскомнадзора и рекламодателей: mosgorsud-torrent[собачка]yandex.ru
 Вход
ppkBB3cker v.2 © 2008-2014 @ PPK
[ Time : 0.785s | 15 Queries | GZIP : Off ]

Торрент трекер RUTOR.IN, Не можете зайти на rutor.org? Какой новый адрес рутор? Какое зеркало рутор? Не работает rutor.org и зеркала? Тогда наш торрент специально для вас. Rutor.in неофициальное зеркало rutor. В случае если у Вас заблокирован rutor или вдруг Вы не можете на него зайти, то Вы без труда сможете скачать бесплатно и без рекламы последние новинки кино, игр, сериалов и прочего у нас, на Rutor.in. Не нужно использовать прокси, чтобы зайти на рутор, достаточно воспользоваться нашим ресурсом. Все новые фильмы, игры, сериалы, книги и музыка за 2013 и 2014 годы через торрент бесплатно. Скачивайте фильмы в хорошем качестве, игры для пк, xbox, playstation без регистрации. У нас вы найдете новые Зарубежные сериалы и Русские сериалы 2013, 2014, 2015 годов. Оставайтесь с нами, качайте любимые фильмы, игры, сериалы, книги и музыку.