img image001 image001 image001 image001 image001 image001 image001 image001 image001 image001 image001 image001 image001 image001 image001

Planets Sun Sun Sun
Статистика раздачи
Автор: Nickolas3434 | Размер: 7.73 ГБ | Добавлен: 22 сен 2014
Раздают: 179    Качают: 9
Скачать торрент
Скачать торрент
Описание торрента

СообщениеДобавлено: 22 сен 2014 

Название: Однажды в лесу
Оригинальное название: Once Upon a Forest (Il etait une foret)
Год выпуска: 2013
Жанр: Документальный, познавательный, флора, фауна
Выпущено: Франция, Bonne Pioche, France 3 Cinéma
Режиссер: Люк Жаке
В ролях: Франсис Алле, Мишель Папинески

Перевод: Профессиональный (одноголосый)

Сюжет фильма

Фильм приглашает Вас отправиться в путешествие по местам, ошеломительным по своей красоте, которые вы никогда не видели раньше. Опираясь на последние научные исследования авторам фильма удалось запечатлеть всю прелесть тропического леса, растущего прямо на глазах у зрителей. Фильм представляет собой полное погружение в мир первозданной природы, позволяющий зрителям открывать самые сокровенные тайны живой природы. Добро пожаловать в самое сердце жизни на Земле!

«Путешествие, которое перевернёт ваше представление о Земле»



Файл
Качество: BDRip 1080p (исходник Blu-ray)
Видео: 1920x1080, 13335 Кбит/сек, 23.976 кадр/сек, AVC, x264, High@L4.1, 0.262 Бит/[Пиксели*Кадры], crf
Аудио 1: AC3 2.0 48 kHz 192 kbps - Профессиональный (одноголосый) - Текст читает - Академик Российской академии естественных наук (РАЕН) Николай Дроздов
Аудио 2: AC3 5.1 48 kHz 640 kbps - French

Продолжительность: 01:18:12
Автор рипа: Сообщество:

Format : Matroska
Format version : Version 2
File size : 7.73 GiB
Duration : 1h 18mn
Overall bit rate : 14.2 Mbps
Movie name : Odnazhdy v lesu.(2013).BDRip.1080p.[denis100]
Encoded date : UTC 2014-09-20 06:21:55
Writing application : mkvmerge v5.8.0 ('No Sleep / Pillow') built on Sep 2 2012 15:37:04
Writing library : libebml v1.2.3 + libmatroska v1.3.0

Video
ID : 1
Format : AVC
Format/Info : Advanced Video Codec
Format profile : High@L4.1
Format settings, CABAC : Yes
Format settings, ReFrames : 4 frames
Codec ID : V_MPEG4/ISO/AVC
Duration : 1h 18mn
Bit rate : 13.0 Mbps
Width : 1 920 pixels
Height : 1 080 pixels
Display aspect ratio : 16:9
Frame rate mode : Constant
Frame rate : 23.976 fps
Color space : YUV
Chroma subsampling : 4:2:0
Bit depth : 8 bits
Scan type : Progressive
Bits/(Pixel*Frame) : 0.262
Stream size : 7.12 GiB (92%)
Title : Odnazhdy v lesu.(2013).BDRip.1080p.[denis100]
Writing library : x264 core 142 r2453 ea0ca51
Encoding settings : cabac=1 / ref=4 / deblock=1:-3:-3 / analyse=0x3:0x133 / me=umh / subme=11 / psy=1 / psy_rd=1.00:0.10 / mixed_ref=1 / me_range=32 / chroma_me=1 / trellis=2 / 8x8dct=1 / cqm=0 / deadzone=21,11 / fast_pskip=0 / chroma_qp_offset=-3 / threads=6 / lookahead_threads=1 / sliced_threads=0 / nr=0 / decimate=1 / interlaced=0 / bluray_compat=0 / constrained_intra=0 / bframes=7 / b_pyramid=2 / b_adapt=2 / b_bias=0 / direct=3 / weightb=1 / open_gop=0 / weightp=2 / keyint=240 / keyint_min=23 / scenecut=40 / intra_refresh=0 / rc=crf / mbtree=0 / crf=18.0 / qcomp=0.60 / qpmin=0 / qpmax=69 / qpstep=4 / ip_ratio=1.40 / pb_ratio=1.30 / aq=2:0.90
Language : English
Default : Yes
Forced : No

Audio #1
ID : 2
Format : AC-3
Format/Info : Audio Coding 3
Mode extension : CM (complete main)
Format settings, Endianness : Big
Codec ID : A_AC3
Duration : 1h 18mn
Bit rate mode : Constant
Bit rate : 192 Kbps
Channel(s) : 2 channels
Channel positions : Front: L R
Sampling rate : 48.0 KHz
Bit depth : 16 bits
Compression mode : Lossy
Stream size : 107 MiB (1%)
Title : Профессиональный oдноголосый, Николай Дроздов
Language : Russian
Default : Yes
Forced : No

Audio #2
ID : 3
Format : AC-3
Format/Info : Audio Coding 3
Mode extension : CM (complete main)
Format settings, Endianness : Big
Codec ID : A_AC3
Duration : 1h 18mn
Bit rate mode : Constant
Bit rate : 640 Kbps
Channel(s) : 6 channels
Channel positions : Front: L C R, Side: L R, LFE
Sampling rate : 48.0 KHz
Bit depth : 16 bits
Compression mode : Lossy
Stream size : 358 MiB (5%)
Title : French
Language : French
Default : No
Forced : No

Menu
00:00:00.000 : en:
00:06:27.804 : en:
00:12:44.555 : en:
00:17:59.286 : en:
00:26:41.099 : en:
00:33:10.238 : en:
00:41:09.967 : en:
00:48:24.526 : en:
00:54:33.061 : en:
01:01:44.826 : en:
01:10:08.204 : en:
01:15:00.537 : en:
01:18:12.312 : en:



   Похожие торренты   Торрент   Размер 
В этой теме нет новых непрочитанных сообщений. Однажды в лесу / Once Upon a Forest / Il etait une foret (2013) BDRip 720p от NNNB

70 | 7

3.63 ГБ

В этой теме нет новых непрочитанных сообщений. Однажды в лесу / Once Upon a Forest / Il etait une foret (2013) BDRip-AVC от -=HD-NET=-

55 | 7

1.07 ГБ

В этой теме нет новых непрочитанных сообщений. Однажды в лесу / Once Upon a Forest / Il était une forêt (2013) HDRip | P1

762 | 152

1.37 ГБ

В этой теме нет новых непрочитанных сообщений. Однажды в лесу / Once Upon a Forest (1993) DVDRip

2 | 6

700.1 МБ

В этой теме нет новых непрочитанных сообщений. Однажды в лесу / Once Upon a Forest (1993) DVDRip-AVC от TORRENT-45 | Лицензия

27 | 3

1.36 ГБ

В этой теме нет новых непрочитанных сообщений. В лесу / Into the Forest (2015) BDRip 1080p | L

199 | 120

8.18 ГБ

В этой теме нет новых непрочитанных сообщений. В лесу / Into the Forest (2015) WEB-DL 1080p | L

1177 | 126

3.23 ГБ




Вы не можете начинать темы
Вы не можете отвечать на сообщения
Вы не можете редактировать свои сообщения
Вы не можете удалять свои сообщения
Вы не можете добавлять вложения

Перейти:  
Для Мосгорсуда, Роскомнадзора и рекламодателей: mosgorsud-torrent[собачка]yandex.ru
 Вход
ppkBB3cker v.2 © 2008-2014 @ PPK
[ Time : 0.388s | 15 Queries | GZIP : Off ]

Торрент трекер RUTOR.IN, Не можете зайти на rutor.org? Какой новый адрес рутор? Какое зеркало рутор? Не работает rutor.org и зеркала? Тогда наш торрент специально для вас. Rutor.in неофициальное зеркало rutor. В случае если у Вас заблокирован rutor или вдруг Вы не можете на него зайти, то Вы без труда сможете скачать бесплатно и без рекламы последние новинки кино, игр, сериалов и прочего у нас, на Rutor.in. Не нужно использовать прокси, чтобы зайти на рутор, достаточно воспользоваться нашим ресурсом. Все новые фильмы, игры, сериалы, книги и музыка за 2013 и 2014 годы через торрент бесплатно. Скачивайте фильмы в хорошем качестве, игры для пк, xbox, playstation без регистрации. У нас вы найдете новые Зарубежные сериалы и Русские сериалы 2013, 2014, 2015 годов. Оставайтесь с нами, качайте любимые фильмы, игры, сериалы, книги и музыку.