img image001 image001 image001 image001 image001 image001 image001 image001 image001 image001 image001 image001 image001 image001 image001

Planets Sun Sun Sun
Статистика раздачи
Автор: Nickolas3434 | Размер: 18.11 ГБ | Добавлен: 26 сен 2014
Раздают: 122    Качают: 30
Скачать торрент
Скачать торрент
Описание торрента

СообщениеДобавлено: 26 сен 2014 

Информация о фильме
Оригинальное название: История: наука или вымысел?
Год выхода: 2009
Жанр: Документальный, научно-популярный
Режиссер: Алексей Кулагин, Юрий Елхов, Андрей Афанасов, Александр Лютенков, Анна Егорова, Юлия Коробко, Наталья Исакова
В ролях: Анатолий Фоменко, Глеб Носовский

О фильме:
На самом ли деле мировая история такая, как описана в учебниках истории? Цикл научно-популярных фильмов «История: наука или вымысел?» предлагаем взглянуть на историю под другим углом. Научные книги и музейные экспозиции, исторические романы и кинофильмы убеждают нас, что об истории человечества известно почти все и практически на любой вопрос пытливого разума у историков обязательно найдется готовый ответ. Однако если мы вглядимся в наше прошлом более пристально, то обнаружим там множество странностей и нестыковок. Почему, скажем, обычно внимательные к историческим деталям живописцы средневековья изображали библейских и античных персонажей, как своих современников? Как древние воины могли рубить своих врагов бронзовыми мечами, если бронзы в те времена еще не было? И откуда взялось в Древнем Египте оружие из железа? А на каком основании Иван Грозный называл себя прямым потомком римского императора Августа? Казалось бы, эти и многие другие загадки должны были заставить историков пристальнее вглядеться в наше прошлое. Но этого до сих пор не случилось, и потому невольно возникает вопрос: а действительно ли мы знаем свою историю?



Фильм 01. Знаем ли мы свою историю?
Фильм 02. На чем основана история.
Фильм 03. Истину можно вычислить.
Фильм 04. Алхимия Пирамид или как строили в древнем Египте.
Фильм 05. Тайна египетских зодиаков.
Фильм 06. Господин Великий Новгород, кто ты?
Фильм 07. Куликово поле. Битва за Москву.
Фильм 08. Русь-Орда.
Фильм 09. В каком веке жил Христос?
Фильм 10. Забытый Иерусалим.
Фильм 11. Московский Кремль.
Фильм 12. Реконструкция истории.
Фильм 13. Фальсификация письменной истории.
Фильм 14. Поделки и подделки.
Фильм 15. Три великие фальшивки.
Фильм 16. Иван Грозный.
Фильм 17. Смута.
Фильм 18. Первые Романовы.
Фильм 19. Как писали русскую историю.
Фильм 20. Радзивиловская летопись.
Фильм 21. Реформация.
Фильм 22. Солдаты Империи.
Фильм 23. Этруски - это русские.
Фильм 24. Символы Древнего Рима.

Страна: Россия
Студия: Кинокомпания "Godland Pictures"
Продолжительность: 24 x ~ 00:55:00
Перевод: Не требуется

Файл
Формат: AVI
Качество: DVDRip
Видео: XviD, 720x400, ~1803 kbps, 25.000 fps
Звук: AC3, 48.0 KHz, 2 ch, 192 Kbps
Субтитры: Нет

Семпл


Complete name : E:KinoIstoriya.Nauka.Ili.Vymysel.XviD.DVDRip.GeneralfilmIstoriya.Nauka.Ili.Vymysel.S01.2009.XviD.DVDRip.GeneralfilmFilm.09.Veke.Zhil.Hristos.XviD.DVDRip.Generalfilm.avi
Format : AVI
Format/Info : Audio Video Interleave
File size : 798 MiB
Duration : 55mn 38s
Overall bit rate : 2 004 Kbps
Writing application : VirtualDubMod 1.5.10.3 | www.virtualdub-fr.org || (build 2550/release)
Writing library : VirtualDubMod build 2550/release

Video
ID : 0
Format : MPEG-4 Visual
Format profile : Advanced Simple@L5
Format settings, BVOP : 2
Format settings, QPel : No
Format settings, GMC : No warppoints
Format settings, Matrix : Default (H.263)
Codec ID : XVID
Codec ID/Hint : XviD
Duration : 55mn 38s
Bit rate : 1 803 Kbps
Width : 720 pixels
Height : 400 pixels
Display aspect ratio : 16:9
Frame rate : 25.000 fps
Color space : YUV
Chroma subsampling : 4:2:0
Bit depth : 8 bits
Scan type : Progressive
Compression mode : Lossy
Bits/(Pixel*Frame) : 0.250
Stream size : 717 MiB (90%)
Writing library : XviD 1.2.1 (UTC 2008-12-04)

Audio
ID : 1
Format : AC-3
Format/Info : Audio Coding 3
Mode extension : CM (complete main)
Format settings, Endianness : Big
Codec ID : 2000
Duration : 55mn 38s
Bit rate mode : Constant
Bit rate : 192 Kbps
Channel count : 2 channels
Channel positions : Front: L R
Sampling rate : 48.0 KHz
Bit depth : 16 bits
Compression mode : Lossy
Stream size : 76.4 MiB (10%)
Alignment : Split accross interleaves
Interleave, duration : 40 ms (1.00 video frame)
Interleave, preload duration : 500 ms

Релиз от:



   Похожие торренты   Торрент   Размер 
В этой теме нет новых непрочитанных сообщений. История: наука или вымысел? [01-24 из 24] (2009-2011) DVDRip от Generalfilm | КПК

171 | 168

5.7 ГБ

В этой теме нет новых непрочитанных сообщений. История: Наука или Вымысел? [01-24] (2009-2011) DVDRip от newchrono

233 | 29

29.54 ГБ

В этой теме нет новых непрочитанных сообщений. История: Наука или Вымысел? (2009) DVDRip

9 | 13

11.54 ГБ

В этой теме нет новых непрочитанных сообщений. История: Наука или Вымысел? [12 серий] (2009) DVDRip

151 | 15

4.36 ГБ

В этой теме нет новых непрочитанных сообщений. История: Наука или Вымысел? [12 серий] (2009) DVDRip от Files-x

21 | 12

8.21 ГБ

В этой теме нет новых непрочитанных сообщений. История: Наука или Вымысел? [13-24] (2011) DVDRip от Files-x

25 | 14

9.49 ГБ

В этой теме нет новых непрочитанных сообщений. История: наука или вымысел? [24 фильма из 24] (2008-2011) DVDRip от MediaClub | КПК

500 | 571

5.69 ГБ




Вы не можете начинать темы
Вы не можете отвечать на сообщения
Вы не можете редактировать свои сообщения
Вы не можете удалять свои сообщения
Вы не можете добавлять вложения

Перейти:  
Для Мосгорсуда, Роскомнадзора и рекламодателей: mosgorsud-torrent[собачка]yandex.ru
 Вход
ppkBB3cker v.2 © 2008-2014 @ PPK
[ Time : 0.519s | 17 Queries | GZIP : Off ]
CGP output time : 0.332s | 5 Queries | GZIP : Off

Торрент трекер RUTOR.IN, Не можете зайти на rutor.org? Какой новый адрес рутор? Какое зеркало рутор? Не работает rutor.org и зеркала? Тогда наш торрент специально для вас. Rutor.in неофициальное зеркало rutor. В случае если у Вас заблокирован rutor или вдруг Вы не можете на него зайти, то Вы без труда сможете скачать бесплатно и без рекламы последние новинки кино, игр, сериалов и прочего у нас, на Rutor.in. Не нужно использовать прокси, чтобы зайти на рутор, достаточно воспользоваться нашим ресурсом. Все новые фильмы, игры, сериалы, книги и музыка за 2013 и 2014 годы через торрент бесплатно. Скачивайте фильмы в хорошем качестве, игры для пк, xbox, playstation без регистрации. У нас вы найдете новые Зарубежные сериалы и Русские сериалы 2013, 2014, 2015 годов. Оставайтесь с нами, качайте любимые фильмы, игры, сериалы, книги и музыку.